<?xml version="1.0" standalone="no"?>
<!DOCTYPE svg PUBLIC "-//W3C//DTD SVG 1.1//EN" "http://www.w3.org/Graphics/SVG/1.1/DTD/svg11.dtd" >
<svg xmlns="http://www.w3.org/2000/svg" xmlns:xlink="http://www.w3.org/1999/xlink" version="1.1">
<metadata>
Created by FontForge 20170731 at Mon Jun  3 19:25:05 2013
 By Aleksey,,,
(c) 2013 Microsoft Corporation. All Rights Reserved. Designed by Luc(as) de Groot
</metadata>
<defs>
<font id="Calibri-Light" horiz-adv-x="0" >
  <font-face 
    font-family="Calibri Light"
    font-weight="300"
    font-stretch="normal"
    units-per-em="2048"
    panose-1="2 15 3 2 2 2 4 3 2 4"
    ascent="1536"
    descent="-512"
    x-height="946"
    cap-height="1294"
    bbox="-1047 -550 2475 1950"
    underline-thickness="104"
    underline-position="-417"
    unicode-range="U+000D-FEFF"
  />
<missing-glyph horiz-adv-x="1038" 
d="M973 1294v-1294h-927v1294h927zM897 70v1154h-778v-1154h778zM760 860q0 -60 -18 -107t-50.5 -79t-76.5 -49.5t-96 -18.5l-5 -170q0 -8 -11 -11.5t-32 -3.5q-10 0 -17 1t-12 3t-7.5 4.5t-2.5 6.5l-4 200q0 23 13 33.5t34 10.5h20q49 0 81.5 13.5t52.5 36.5t28.5 55
t8.5 68q0 80 -44 126t-142 46q-39 0 -70.5 -8.5t-55.5 -19t-40 -19t-23 -8.5q-3 0 -6.5 1.5t-6 6t-4 12t-1.5 19.5t2.5 21.5t10.5 17.5q7 7 27 16.5t47.5 18.5t61 15.5t66.5 6.5q69 0 120 -19t84.5 -52t50.5 -78t17 -96zM536 267q0 -18 -3 -30t-10 -19.5t-18.5 -10.5
t-28.5 -3q-18 0 -30 3t-19.5 10.5t-10.5 19.5t-3 30t3 30t10.5 19.5t19.5 10.5t30 3q17 0 28.5 -3t18.5 -10.5t10 -19.5t3 -30z" />
    <glyph glyph-name="uniFB00" unicode="ff" horiz-adv-x="1175" 
d="M1200 1311q0 -23 -5 -34t-16 -11q-8 0 -19.5 5t-29 11t-40 11t-50.5 5q-83 0 -116.5 -58.5t-33.5 -186.5v-107h222q7 0 12.5 -3t9.5 -9.5t6 -16t2 -22.5q0 -25 -8 -37.5t-22 -12.5h-222v-825q0 -6 -3 -11t-9.5 -8t-18 -5t-28.5 -2q-18 0 -29.5 2t-18 5t-9.5 8t-3 11v825
h-444v-825q0 -6 -3 -11t-10 -8t-18.5 -5t-28.5 -2t-28.5 2t-18.5 5t-9.5 8t-2.5 11v825h-136q-14 0 -21.5 12.5t-7.5 37.5q0 13 2 22.5t5.5 16t9 9.5t12.5 3h136v96q0 94 17.5 160t52 107.5t85.5 60.5t117 19q44 0 76 -8t50 -16q9 -4 14.5 -9.5t9 -13.5t5 -18.5t1.5 -23.5
q0 -23 -4.5 -34t-15.5 -11q-8 0 -20 5t-29.5 11t-40 11t-50.5 5q-83 0 -116 -58.5t-33 -186.5v-96h444v107q0 94 18 160t52.5 107.5t85.5 60.5t117 19q43 0 75.5 -8t50.5 -16q8 -4 14 -9.5t9.5 -13.5t5 -18.5t1.5 -23.5z" />
    <glyph glyph-name="uniFB01" unicode="fi" horiz-adv-x="1057" 
d="M908 1229q0 -23 -3.5 -38.5t-12 -25t-23.5 -13.5t-38 -4t-38 4t-24 13.5t-12.5 25t-3.5 38.5t3.5 38.5t12.5 25.5t24 14t38 4t38 -4t23.5 -14t12 -25.5t3.5 -38.5zM890 20q0 -6 -3 -11t-9.5 -8t-18 -5t-28.5 -2q-18 0 -29.5 2t-18 5t-9.5 8t-3 11v825h-444v-825
q0 -6 -3 -11t-9.5 -8t-18 -5t-29.5 -2q-17 0 -28.5 2t-18.5 5t-9.5 8t-2.5 11v825h-136q-14 0 -21.5 12.5t-7.5 37.5q0 13 2 22.5t5.5 16t9 9.5t12.5 3h136v107q0 94 17.5 160t51.5 107.5t83.5 60.5t112.5 19q22 0 43 -2t38.5 -5.5t30 -8t17 -9t7.5 -9.5t4.5 -11.5
t2.5 -15.5t1 -21q0 -22 -4.5 -33t-15.5 -11q-8 0 -17 3.5t-23.5 8t-35.5 8.5t-52 4q-78 0 -110 -58.5t-32 -186.5v-107h526q20 0 28.5 -11.5t8.5 -29.5v-885z" />
    <glyph glyph-name="uniFB02" unicode="fl" horiz-adv-x="1057" 
d="M890 20q0 -6 -3 -11t-9.5 -8t-18 -5t-28.5 -2q-18 0 -29.5 2t-18 5t-9.5 8t-3 11v1256q-2 -2 -5 -2.5t-9 -0.5q-12 0 -39 6.5t-55.5 10.5t-54 6t-48.5 2q-71 0 -116.5 -14.5t-71.5 -44.5t-35.5 -76.5t-9.5 -109.5v-107h205q7 0 12.5 -3t9.5 -9.5t6 -16t2 -22.5
q0 -25 -8 -37.5t-22 -12.5h-205v-825q0 -6 -3 -11t-9.5 -8t-18 -5t-29.5 -2q-17 0 -28.5 2t-18.5 5t-9.5 8t-2.5 11v825h-136q-14 0 -21.5 12.5t-7.5 37.5q0 13 2 22.5t5.5 16t9 9.5t12.5 3h136v107q0 94 21 160t65 107.5t111 60.5t159 19q26 0 52.5 -2t51.5 -5t44 -6.5
t30 -6.5t18 -7t11 -12q0 10 3 16t9.5 10t18 5.5t29.5 1.5q17 0 28.5 -1.5t18 -5t9.5 -8.5t3 -11v-1348z" />
    <glyph glyph-name="uniFB03" unicode="ffi" horiz-adv-x="1620" 
d="M1472 1229q0 -23 -3.5 -38.5t-12.5 -25t-24 -13.5t-38 -4t-38 4t-24 13.5t-12.5 25t-3.5 38.5t3.5 38.5t12.5 25.5t24 14t38 4t38 -4t24 -14t12.5 -25.5t3.5 -38.5zM1454 20q0 -6 -3 -11t-9.5 -8t-18 -5t-29.5 -2q-17 0 -28.5 2t-18.5 5t-9.5 8t-2.5 11v825h-445v-825
q0 -6 -3 -11t-9.5 -8t-18 -5t-28.5 -2q-18 0 -29.5 2t-18 5t-9.5 8t-3 11v825h-444v-825q0 -6 -3 -11t-9.5 -8t-18.5 -5t-29 -2t-28.5 2t-18.5 5t-9.5 8t-2.5 11v825h-136q-14 0 -21.5 12.5t-7.5 37.5q0 13 2 22.5t5.5 16t9 9.5t12.5 3h136v96q0 94 17.5 160t52 107.5
t85.5 60.5t117 19q44 0 76 -8t45.5 -14t19 -11.5t9 -13.5t5 -18.5t1.5 -23.5q0 -23 -4.5 -34t-15.5 -11q-8 0 -20 5t-29.5 11t-40 11t-50.5 5q-83 0 -116 -58.5t-33 -186.5v-96h444v107q0 94 18 160t51.5 107.5t83 60.5t112.5 19q22 0 43.5 -2t38.5 -5.5t29.5 -8t17 -9
t7.5 -9.5t5 -11.5t3 -15.5t1 -21q0 -22 -4.5 -33t-15.5 -11q-8 0 -17.5 3.5t-23.5 8t-35 8.5t-52 4q-78 0 -110.5 -58.5t-32.5 -186.5v-107h526q20 0 29 -11.5t9 -29.5v-885z" />
    <glyph glyph-name="uniFB04" unicode="ffl" horiz-adv-x="1620" 
d="M1454 20q0 -6 -3 -11t-9.5 -8t-18 -5t-29.5 -2q-17 0 -28.5 2t-18.5 5t-9.5 8t-2.5 11v1256q-3 -2 -6 -2.5t-9 -0.5q-12 0 -39 6.5t-55.5 10.5t-54 6t-47.5 2q-71 0 -116.5 -14.5t-71.5 -44.5t-36 -76.5t-10 -109.5v-107h206q7 0 12 -3t9 -9.5t6 -16t2 -22.5
q0 -25 -8 -37.5t-21 -12.5h-206v-825q0 -6 -3 -11t-9.5 -8t-18 -5t-28.5 -2q-18 0 -29.5 2t-18 5t-9.5 8t-3 11v825h-444v-825q0 -6 -3 -11t-9.5 -8t-18.5 -5t-29 -2t-28.5 2t-18.5 5t-9.5 8t-2.5 11v825h-136q-14 0 -21.5 12.5t-7.5 37.5q0 13 2 22.5t5.5 16t9 9.5t12.5 3
h136v96q0 94 17.5 160t52 107.5t85.5 60.5t117 19q44 0 76 -8t45.5 -14t19 -11.5t9 -13.5t5 -18.5t1.5 -23.5q0 -23 -4.5 -34t-15.5 -11q-8 0 -20 5t-29.5 11t-40 11t-50.5 5q-83 0 -116 -58.5t-33 -186.5v-96h444v107q0 94 21.5 160t65 107.5t110.5 60.5t159 19
q26 0 52.5 -2t51.5 -5t44.5 -6.5t30.5 -6.5t17.5 -7t11.5 -12q0 10 2.5 16t9.5 10t18.5 5.5t28.5 1.5q18 0 29.5 -1.5t18 -5t9.5 -8.5t3 -11v-1348z" />
    <glyph glyph-name="f_b.liga" unicode="fb" horiz-adv-x="1668" 
d="M1561 484q0 -116 -25 -208.5t-74 -157.5t-121.5 -100t-166.5 -35q-42 0 -77.5 8.5t-70 27.5t-69.5 48t-76 70v-117q0 -7 -3.5 -12t-10 -8t-17 -4.5t-25.5 -1.5t-25.5 1.5t-17 4.5t-9 8t-2.5 12v1256q-4 -2 -7.5 -2.5t-8.5 -0.5q-10 0 -39 6.5t-55 10.5t-52 6t-49 2
q-71 0 -116.5 -14.5t-71.5 -44.5t-35.5 -76.5t-9.5 -109.5v-107h205q7 0 12.5 -3t9.5 -9.5t6 -16t2 -22.5q0 -25 -8 -37.5t-22 -12.5h-205v-825q0 -6 -3 -11t-10 -8t-18.5 -5t-28.5 -2t-28.5 2t-18.5 5t-9.5 8t-2.5 11v825h-136q-14 0 -21.5 12.5t-7.5 37.5q0 13 2 22.5
t5.5 16t9 9.5t12.5 3h136v107q0 94 21 160t65 107.5t111 60.5t159 19q26 0 52.5 -2t50.5 -5t44 -6.5t31 -6.5t18 -7t11 -12q0 10 3 16t9.5 10t18 5.5t29.5 1.5q17 0 28.5 -1.5t18 -5t9.5 -8.5t3 -11v-565q44 45 83 75.5t76 49t73.5 26.5t75.5 8q98 0 167 -38t112.5 -103
t63.5 -152t20 -185zM1437 465q0 76 -12 147t-41 126t-77 88.5t-120 33.5q-36 0 -70 -10t-70 -33t-74.5 -59.5t-82.5 -90.5v-394q75 -91 144.5 -139.5t144.5 -48.5q70 0 119 33.5t80 87.5t45 122t14 137z" />
    <glyph glyph-name="f_f_b.liga" unicode="ffb" horiz-adv-x="2232" 
d="M2000 465q0 76 -12 147t-41 126t-77 88.5t-120 33.5q-35 0 -69.5 -10t-70.5 -33t-74.5 -59.5t-81.5 -90.5v-394q75 -91 144.5 -139.5t144.5 -48.5q69 0 118 33.5t80 87.5t45 122t14 137zM771 946v107q0 94 21.5 160t65 107.5t110.5 60.5t159 19q27 0 53.5 -2t50.5 -5
t44 -6.5t31 -6.5t17.5 -7t11.5 -12q0 10 2.5 16t9.5 10t18.5 5.5t28.5 1.5q18 0 29.5 -1.5t18 -5t9.5 -8.5t3 -11v-565q43 45 82 75.5t76 49t73.5 26.5t75.5 8q98 0 167.5 -38t113 -103t63.5 -152t20 -185q0 -116 -25 -208.5t-74.5 -157.5t-122 -100t-166.5 -35
q-42 0 -77.5 8.5t-69.5 27.5t-69.5 48t-76.5 70v-117q0 -7 -3 -12t-10 -8t-17 -4.5t-25 -1.5t-25.5 1.5t-17 4.5t-9 8t-2.5 12v1256q-4 -2 -7.5 -2.5t-8.5 -0.5q-10 0 -39 6.5t-55 10.5t-52 6t-49 2q-71 0 -116.5 -14.5t-71.5 -44.5t-36 -76.5t-10 -109.5v-107h206
q7 0 12 -3t9 -9.5t6 -16t2 -22.5q0 -25 -8 -37.5t-21 -12.5h-206v-825q0 -6 -3 -11t-9.5 -8t-18 -5t-28.5 -2q-18 0 -29.5 2t-18 5t-9.5 8t-3 11v825h-444v-825q0 -6 -3 -11t-9.5 -8t-18 -5t-29.5 -2q-17 0 -28.5 2t-18.5 5t-9.5 8t-2.5 11v825h-136q-14 0 -21.5 12.5
t-7.5 37.5q0 13 2 22.5t5.5 16t9 9.5t12.5 3h136v96q0 94 17.5 160t52 107.5t85.5 60.5t117 19q44 0 76 -8t50 -16q9 -4 14.5 -9.5t9 -13.5t5 -18.5t1.5 -23.5q0 -23 -4.5 -34t-15.5 -11q-8 0 -20 5t-29.5 11t-40 11t-50.5 5q-83 0 -116 -58.5t-33 -186.5v-96h444z" />
    <glyph glyph-name="f_h.liga" unicode="fh" horiz-adv-x="1669" 
d="M1505 20q0 -6 -3 -11t-9.5 -8t-18 -5t-28.5 -2t-28.5 2t-19 5t-10 8t-2.5 11v537q0 84 -12.5 136.5t-39 90t-66.5 58t-94 20.5q-69 0 -138 -49t-146 -144v-649q0 -6 -3 -11t-9.5 -8t-18 -5t-28.5 -2q-18 0 -29.5 2t-18 5t-9.5 8t-3 11v1256q-4 -2 -7.5 -2.5t-8.5 -0.5
q-10 0 -39 6.5t-55 10.5t-52 6t-49 2q-71 0 -116.5 -14.5t-71.5 -44.5t-35.5 -76.5t-9.5 -109.5v-107h205q7 0 12.5 -3t9.5 -9.5t6 -16t2 -22.5q0 -25 -8 -37.5t-22 -12.5h-205v-825q0 -6 -3 -11t-9.5 -8t-18 -5t-29.5 -2q-17 0 -28.5 2t-18.5 5t-9.5 8t-2.5 11v825h-136
q-14 0 -21.5 12.5t-7.5 37.5q0 13 2 22.5t5.5 16t9 9.5t12.5 3h136v107q0 94 21 160t65 107.5t111 60.5t159 19q26 0 52.5 -2t50.5 -5t44 -6.5t31 -6.5t18 -7t11 -12q0 10 3 16t9.5 10t18 5.5t29.5 1.5q17 0 28.5 -1.5t18 -5t9.5 -8.5t3 -11v-565q74 82 148 120.5t149 38.5
q89 0 149.5 -30t98 -81t54 -119t16.5 -164v-548z" />
    <glyph glyph-name="f_f_h.liga" unicode="ffh" horiz-adv-x="2232" 
d="M771 1053q0 94 21.5 160t65 107.5t110.5 60.5t159 19q27 0 53.5 -2t50.5 -5t44 -6.5t31 -6.5t17.5 -7t11.5 -12q0 10 2.5 16t9.5 10t18.5 5.5t28.5 1.5q18 0 29.5 -1.5t18 -5t9.5 -8.5t3 -11v-565q74 82 148 120.5t148 38.5q89 0 150 -30t98.5 -81t54 -119t16.5 -164
v-548q0 -6 -3 -11t-9.5 -8t-18 -5t-28.5 -2q-18 0 -29.5 2t-18 5t-9.5 8t-3 11v537q0 84 -13 136.5t-39 90t-66.5 58t-94.5 20.5q-69 0 -137.5 -49t-145.5 -144v-649q0 -6 -3 -11t-9.5 -8t-18 -5t-29.5 -2q-17 0 -28.5 2t-18.5 5t-9.5 8t-2.5 11v1256q-4 -2 -7.5 -2.5
t-8.5 -0.5q-9 0 -34.5 6t-55.5 10.5t-56 6.5t-49 2q-71 0 -116.5 -14.5t-71.5 -44.5t-36 -76.5t-10 -109.5v-107h206q7 0 12 -3t9 -9.5t6 -16t2 -22.5q0 -25 -8 -37.5t-21 -12.5h-206v-825q0 -6 -3 -11t-9.5 -8t-18 -5t-28.5 -2q-18 0 -29.5 2t-18 5t-9.5 8t-3 11v825h-444
v-825q0 -6 -3 -11t-9.5 -8t-18.5 -5t-29 -2t-28.5 2t-18.5 5t-9.5 8t-2.5 11v825h-136q-14 0 -21.5 12.5t-7.5 37.5q0 13 2 22.5t5.5 16t9 9.5t12.5 3h136v96q0 94 17.5 160t52 107.5t85.5 60.5t117 19q44 0 76 -8t50 -16q9 -4 14.5 -9.5t9 -13.5t5 -18.5t1.5 -23.5
q0 -23 -4.5 -34t-15.5 -11q-8 0 -20 5t-29.5 11t-40 11t-50.5 5q-83 0 -116 -58.5t-33 -186.5v-96h444v107z" />
    <glyph glyph-name="f_igrave.liga" unicode="f&#xec;" horiz-adv-x="1057" 
d="M890 20q0 -6 -3 -11t-9.5 -8t-18 -5t-28.5 -2q-18 0 -29.5 2t-18 5t-9.5 8t-3 11v825h-444v-825q0 -6 -3 -11t-9.5 -8t-18.5 -5t-29 -2t-28.5 2t-18.5 5t-9.5 8t-2.5 11v825h-136q-14 0 -21.5 12.5t-7.5 37.5q0 13 2 22.5t5.5 16t9 9.5t12.5 3h136v126q0 87 17.5 149
t50.5 101.5t80 58.5t106 19q29 0 55 -4t43 -10t23 -12t9.5 -14t5 -18.5t1.5 -23.5q0 -22 -5 -33t-16 -11q-8 0 -18 3.5t-24.5 8t-33.5 8.5t-44 4q-70 0 -100.5 -55.5t-30.5 -170.5v-126h526q20 0 28.5 -11.5t8.5 -29.5v-885zM883 1133q3 -9 3.5 -16t-3.5 -11.5t-13.5 -7
t-24.5 -2.5t-24.5 1t-16 4t-11 8.5t-9.5 15.5l-124 234q-5 9 -4 16.5t7.5 13t19 8.5t31.5 3t31 -1.5t19.5 -5t11.5 -10.5t8 -17z" />
    <glyph glyph-name="f_iacute.liga" unicode="f&#xed;" horiz-adv-x="1057" 
d="M890 20q0 -6 -3 -11t-9.5 -8t-18 -5t-28.5 -2q-18 0 -29.5 2t-18 5t-9.5 8t-3 11v825h-444v-825q0 -6 -3 -11t-9.5 -8t-18 -5t-29.5 -2q-17 0 -28.5 2t-18.5 5t-9.5 8t-2.5 11v825h-136q-14 0 -21.5 12.5t-7.5 37.5q0 13 2 22.5t5.5 16t9 9.5t12.5 3h136v107
q0 94 17.5 160t52 107.5t85.5 60.5t117 19q38 0 70 -6.5t48.5 -14t22 -13t9 -13.5t5 -18.5t1.5 -23.5q0 -23 -4.5 -34t-15.5 -11q-8 0 -20 5t-29.5 11t-40 11t-50.5 5q-83 0 -116 -58.5t-33 -186.5v-107h526q20 0 28.5 -11.5t8.5 -29.5v-885zM931 1366q6 10 13 17t16.5 10.5
t23 5t32.5 1.5t31 -3t17 -8.5t3.5 -13t-8.5 -16.5l-174 -234q-7 -10 -12.5 -15.5t-12.5 -8.5t-17 -4t-25 -1t-24.5 2.5t-13 7t-2.5 11.5t7 16z" />
    <glyph glyph-name="f_icircumflex.liga" unicode="f&#xee;" horiz-adv-x="1057" 
d="M890 20q0 -6 -3 -11t-9.5 -8t-18 -5t-28.5 -2q-18 0 -29.5 2t-18 5t-9.5 8t-3 11v825h-444v-825q0 -6 -3 -11t-9.5 -8t-18 -5t-29.5 -2q-17 0 -28.5 2t-18.5 5t-9.5 8t-2.5 11v825h-136q-14 0 -21.5 12.5t-7.5 37.5q0 13 2 22.5t5.5 16t9 9.5t12.5 3h136v126
q0 87 17.5 149t50.5 101.5t80 58.5t106 19q29 0 56 -4t43 -10t22 -12t9.5 -14t5 -18.5t1.5 -23.5q0 -22 -5 -33t-16 -11q-8 0 -18 3.5t-23.5 8t-33.5 8.5t-45 4q-70 0 -100.5 -55.5t-30.5 -170.5v-126h526q20 0 28.5 -11.5t8.5 -29.5v-885zM706 1122q-5 -8 -10.5 -13t-12 -8
t-16 -4t-22.5 -1q-20 0 -30.5 3t-13.5 9t1 15.5t14 22.5l165 232q5 7 10 11t12.5 6.5t19 3.5t28.5 1q15 0 25 -1t17.5 -4t12.5 -7t10 -10l165 -232q9 -13 12.5 -22.5t0 -15.5t-14.5 -9t-30 -3q-15 0 -24 1t-15.5 4t-11 8t-10.5 13l-141 198z" />
    <glyph glyph-name="f_itilde.liga" unicode="f&#x129;" horiz-adv-x="1075" 
d="M909 20q0 -6 -3 -11t-9.5 -8t-18 -5t-29.5 -2q-17 0 -28.5 2t-18.5 5t-9.5 8t-2.5 11v825h-463v-825q0 -6 -3 -11t-9.5 -8t-18.5 -5t-29 -2t-28.5 2t-18.5 5t-9.5 8t-2.5 11v825h-136q-14 0 -21.5 12.5t-7.5 37.5q0 13 2 22.5t5.5 16t9 9.5t12.5 3h136v126q0 87 17.5 149
t50.5 101.5t80 58.5t106 19q15 0 29.5 -1t27.5 -3t24.5 -5t19.5 -6t13 -7.5t8 -11.5t4.5 -17t1.5 -23q0 -23 -5 -34t-16 -11q-8 0 -16.5 2.5t-21.5 6t-30.5 6t-42.5 2.5q-70 0 -100.5 -55.5t-30.5 -170.5v-126h545q20 0 28.5 -11.5t8.5 -29.5v-885zM1129 1283q0 -49 -12 -86
t-33 -62.5t-50 -38.5t-63 -13q-48 0 -82.5 22t-61.5 49t-49.5 49t-47.5 22q-33 0 -48 -32.5t-15 -83.5q0 -14 -9.5 -20t-38.5 -6q-23 0 -34.5 8t-11.5 34q0 91 42.5 146t116.5 55q32 0 57.5 -10.5t47 -26.5t39.5 -34.5t34 -34.5t31 -26.5t32 -10.5q29 0 45.5 29t16.5 88
q0 14 10.5 20t33.5 6q28 0 39 -8.5t11 -34.5z" />
    <glyph glyph-name="f_idieresis.liga" unicode="f&#xef;" horiz-adv-x="1075" 
d="M909 20q0 -6 -3 -11t-9.5 -8t-18 -5t-28.5 -2q-18 0 -29.5 2t-18.5 5t-9.5 8t-2.5 11v825h-463v-825q0 -6 -3 -11t-9.5 -8t-18.5 -5t-29 -2t-28.5 2t-18.5 5t-9.5 8t-2.5 11v825h-136q-14 0 -21.5 12.5t-7.5 37.5q0 13 2 22.5t5.5 16t9 9.5t12.5 3h136v126q0 87 17.5 149
t50.5 101.5t80 58.5t106 19q15 0 29.5 -1t27.5 -3t24.5 -5t19.5 -6t13 -7.5t8 -11.5t4.5 -17t1.5 -23q0 -23 -5 -34t-16 -11q-8 0 -16.5 2.5t-21.5 6t-30.5 6t-42.5 2.5q-70 0 -100.5 -55.5t-30.5 -170.5v-126h545q20 0 28.5 -11.5t8.5 -29.5v-885zM649 1229q0 22 3.5 37
t12 24t23 13t35.5 4q22 0 36 -4t22.5 -13t12 -24t3.5 -37q0 -21 -3.5 -36t-12 -24.5t-22.5 -13.5t-36 -4q-21 0 -35.5 4t-23 13.5t-12 24.5t-3.5 36zM927 1229q0 22 3.5 37t12 24t23 13t35.5 4q22 0 36 -4t22.5 -13t12 -24t3.5 -37q0 -21 -3.5 -36t-12 -24.5t-22.5 -13.5
t-36 -4q-21 0 -35.5 4t-23 13.5t-12 24.5t-3.5 36z" />
    <glyph glyph-name="f_imacron.liga" unicode="f&#x12b;" horiz-adv-x="1075" 
d="M909 20q0 -6 -3 -11t-9.5 -8t-18 -5t-29.5 -2q-17 0 -28.5 2t-18.5 5t-9.5 8t-2.5 11v825h-463v-825q0 -6 -3 -11t-9.5 -8t-18.5 -5t-29 -2t-28.5 2t-18.5 5t-9.5 8t-2.5 11v825h-136q-14 0 -21.5 12.5t-7.5 37.5q0 13 2 22.5t5.5 16t9 9.5t12.5 3h136v126q0 87 17.5 149
t50.5 101.5t80 58.5t106 19q15 0 29.5 -1t27.5 -3t24.5 -5t19.5 -6t13 -7.5t8 -11.5t4.5 -17t1.5 -23q0 -23 -5 -34t-16 -11q-8 0 -16.5 2.5t-21.5 6t-30.5 6t-42.5 2.5q-70 0 -101 -55.5t-30 -170.5v-126h545q20 0 28.5 -11.5t8.5 -29.5v-885zM1064 1277q6 0 11 -3t8.5 -9
t5 -15.5t1.5 -22.5q0 -12 -1.5 -21t-5 -15.5t-8.5 -10t-11 -3.5h-415q-7 0 -12.5 3.5t-9 10t-5 15.5t-1.5 21q0 13 1.5 22.5t5 15.5t9 9t12.5 3h415z" />
    <glyph glyph-name="f_ibreve.liga" unicode="f&#x12d;" horiz-adv-x="1075" 
d="M909 20q0 -6 -3 -11t-9.5 -8t-18 -5t-28.5 -2q-18 0 -29.5 2t-18.5 5t-9.5 8t-2.5 11v825h-463v-825q0 -6 -3 -11t-9.5 -8t-18 -5t-29.5 -2q-17 0 -28.5 2t-18.5 5t-9.5 8t-2.5 11v825h-136q-14 0 -21.5 12.5t-7.5 37.5q0 13 2 22.5t5.5 16t9 9.5t12.5 3h136v126
q0 87 17.5 149t50.5 101.5t80 58.5t106 19q15 0 29.5 -1t27.5 -3t24.5 -5t19.5 -6t13 -7.5t8 -11.5t4.5 -17t1.5 -23q0 -23 -5 -34t-16 -11q-8 0 -16.5 2.5t-21.5 6t-30.5 6t-42.5 2.5q-70 0 -100.5 -55.5t-30.5 -170.5v-126h545q20 0 28.5 -11.5t8.5 -29.5v-885zM992 1361
q0 11 9 17.5t37 6.5q29 0 37 -5.5t8 -18.5q0 -68 -14.5 -118t-43 -83t-71 -49.5t-99.5 -16.5q-62 0 -105.5 17.5t-70.5 51.5t-39.5 82.5t-12.5 111.5q0 14 9 21t35 7q14 0 23 -1.5t14 -4.5t7 -7.5t2 -10.5q2 -40 10 -72t24 -54.5t41.5 -34.5t62.5 -12q30 0 54.5 9.5t42 30.5
t28 53.5t12.5 79.5z" />
    <glyph glyph-name="f_iogonek.liga" unicode="f&#x12f;" horiz-adv-x="1057" 
d="M908 1229q0 -23 -3.5 -38.5t-12 -25t-23.5 -13.5t-38 -4t-38 4t-24 13.5t-12.5 25t-3.5 38.5t3.5 38.5t12.5 25.5t24 14t38 4t38 -4t23.5 -14t12 -25.5t3.5 -38.5zM890 20q0 -22 -4.5 -34.5t-12.5 -20.5l-81 -82q-17 -17 -27 -30t-15 -23.5t-6.5 -19.5t-1.5 -18
q0 -30 19.5 -44.5t59.5 -14.5h121q6 0 10.5 -1.5t7.5 -6t4.5 -12.5t1.5 -21q0 -11 -1.5 -18t-4.5 -12t-9 -7.5t-15 -4.5q-31 -8 -62 -11.5t-66 -3.5q-43 0 -76.5 9.5t-57 27.5t-35.5 44.5t-12 61.5q0 14 2 30t10 35t23.5 41.5t43.5 50.5l65 65v845h-444v-825q0 -6 -3 -11
t-9.5 -8t-18 -5t-29.5 -2q-17 0 -28.5 2t-18.5 5t-9.5 8t-2.5 11v825h-136q-14 0 -21.5 12.5t-7.5 37.5q0 13 2 22.5t5.5 16t9 9.5t12.5 3h136v107q0 94 17.5 160t51.5 107.5t83.5 60.5t112.5 19q22 0 43 -2t38.5 -5.5t30 -8t17 -9t7.5 -9.5t4.5 -11.5t2.5 -15.5t1 -21
q0 -22 -4.5 -33t-15.5 -11q-8 0 -17 3.5t-23.5 8t-35.5 8.5t-52 4q-78 0 -110.5 -58.5t-31.5 -186.5v-107h526q20 0 28.5 -11.5t8.5 -29.5v-885z" />
    <glyph glyph-name="f_dotlessi.liga" unicode="f&#x131;" horiz-adv-x="1057" 
d="M890 20q0 -6 -3 -11t-9.5 -8t-18 -5t-28.5 -2q-18 0 -29.5 2t-18 5t-9.5 8t-3 11v825h-444v-825q0 -6 -3 -11t-9.5 -8t-18 -5t-29.5 -2q-17 0 -28.5 2t-18.5 5t-9.5 8t-2.5 11v825h-136q-14 0 -21.5 12.5t-7.5 37.5q0 13 2 22.5t5.5 16t9 9.5t12.5 3h136v107
q0 94 17.5 160t52 107.5t85.5 60.5t117 19q38 0 70 -6.5t48.5 -14t22 -13t9 -13.5t5 -18.5t1.5 -23.5q0 -23 -4.5 -34t-15.5 -11q-8 0 -20 5t-29.5 11t-40 11t-50.5 5q-83 0 -116 -58.5t-33 -186.5v-107h526q20 0 28.5 -11.5t8.5 -29.5v-885z" />
    <glyph glyph-name="f_f_igrave.liga" unicode="ff&#xec;" horiz-adv-x="1620" 
d="M1454 20q0 -6 -3 -11t-9.5 -8t-18 -5t-29.5 -2q-17 0 -28.5 2t-18.5 5t-9.5 8t-2.5 11v825h-445v-825q0 -6 -3 -11t-9.5 -8t-18 -5t-28.5 -2q-18 0 -29.5 2t-18 5t-9.5 8t-3 11v825h-444v-825q0 -6 -3 -11t-9.5 -8t-18.5 -5t-29 -2t-28.5 2t-18.5 5t-9.5 8t-2.5 11v825
h-136q-14 0 -21.5 12.5t-7.5 37.5q0 13 2 22.5t5.5 16t9 9.5t12.5 3h136v96q0 94 17.5 160t52 107.5t85.5 60.5t117 19q44 0 76 -8t45.5 -14t19 -11.5t9 -13.5t5 -18.5t1.5 -23.5q0 -23 -4.5 -34t-15.5 -11q-8 0 -20 5t-29.5 11t-40 11t-50.5 5q-83 0 -116 -58.5t-33 -186.5
v-96h444v126q0 87 17.5 149t50.5 101.5t80 58.5t106 19q29 0 59.5 -4.5t43.5 -10t18.5 -11.5t9 -14t5 -18.5t1.5 -23.5q0 -22 -4.5 -33t-15.5 -11q-8 0 -18 3.5t-24.5 8t-33.5 8.5t-44 4q-70 0 -101 -55.5t-31 -170.5v-126h526q20 0 29 -11.5t9 -29.5v-885zM1446 1133
q3 -9 3.5 -16t-3.5 -11.5t-13 -7t-24 -2.5t-25 1t-16 4t-10.5 8.5t-9.5 15.5l-124 234q-5 9 -4.5 16.5t7 13t19 8.5t31.5 3t31 -1.5t19.5 -5t12 -10.5t8.5 -17z" />
    <glyph glyph-name="f_f_iacute.liga" unicode="ff&#xed;" horiz-adv-x="1620" 
d="M1441.5 1q-12.5 -7 -47.5 -7t-47 7t-12 19v825h-445v-825q0 -12 -12 -19t-47 -7t-47.5 7t-12.5 19v825h-444v-825q0 -12 -12.5 -19t-47.5 -7t-47 7t-12 19v825h-136q-29 0 -29 50q0 51 29 51h136v96q0 94 17.5 160t52 107.5t85.5 60.5t117 19q44 0 76 -8t50 -16
q17 -8 23.5 -23.5t6.5 -41.5q0 -45 -20 -45q-8 0 -20 5t-29.5 11t-40 11t-50.5 5q-83 0 -116 -58.5t-33 -186.5v-96h444v126q0 87 17.5 149t50.5 101.5t80 58.5t106 19q29 0 57 -4.5t45 -10.5q14 -5 20 -19t6 -40q0 -45 -20 -45q-8 0 -17 2.5t-21.5 6t-30 6t-42.5 2.5
q-70 0 -101 -55.5t-31 -170.5v-126h526q20 0 29 -11.5t9 -29.5v-885q0 -12 -12.5 -19zM1494 1366q6 10 13 17t16.5 10.5t23 5t32.5 1.5t31 -3t17 -8.5t3.5 -13t-8.5 -16.5l-174 -234q-7 -10 -12.5 -15.5t-12.5 -8.5t-17 -4t-25 -1t-24.5 2.5t-13 7t-2.5 11.5t7 16z" />
    <glyph glyph-name="f_f_icircumflex.liga" unicode="ff&#xee;" horiz-adv-x="1620" 
d="M1454 20q0 -6 -3 -11t-9.5 -8t-18 -5t-29.5 -2q-17 0 -28.5 2t-18.5 5t-9.5 8t-2.5 11v825h-445v-825q0 -6 -3 -11t-9.5 -8t-18 -5t-28.5 -2q-18 0 -29.5 2t-18 5t-9.5 8t-3 11v825h-444v-825q0 -6 -3 -11t-9.5 -8t-18.5 -5t-29 -2t-28.5 2t-18.5 5t-9.5 8t-2.5 11v825
h-136q-14 0 -21.5 12.5t-7.5 37.5q0 13 2 22.5t5.5 16t9 9.5t12.5 3h136v96q0 94 17.5 160t52 107.5t85.5 60.5t117 19q44 0 76 -8t45.5 -14t19 -11.5t9 -13.5t5 -18.5t1.5 -23.5q0 -23 -4.5 -34t-15.5 -11q-8 0 -20 5t-29.5 11t-40 11t-50.5 5q-83 0 -116 -58.5t-33 -186.5
v-96h444v126q0 87 17.5 149t50.5 101.5t80 58.5t106 19q29 0 59.5 -4.5t43.5 -10t18.5 -11.5t9 -14t5 -18.5t1.5 -23.5q0 -22 -4.5 -33t-15.5 -11q-8 0 -18 3.5t-24.5 8t-33.5 8.5t-44 4q-70 0 -101 -55.5t-31 -170.5v-126h526q20 0 29 -11.5t9 -29.5v-885zM1270 1122
q-6 -8 -11 -13t-12 -8t-16 -4t-22 -1q-20 0 -30.5 3t-13.5 9t0.5 15.5t13.5 22.5l165 232q5 7 10 11t12.5 6.5t19 3.5t29.5 1q15 0 25 -1t17 -4t12 -7t10 -10l165 -232q9 -13 13 -22.5t0.5 -15.5t-14.5 -9t-30 -3q-15 0 -24 1t-15.5 4t-11 8t-10.5 13l-141 198z" />
    <glyph glyph-name="f_f_itilde.liga" unicode="ff&#x129;" horiz-adv-x="1639" 
d="M1472 20q0 -6 -3 -11t-9.5 -8t-18 -5t-28.5 -2q-18 0 -29.5 2t-18 5t-9.5 8t-3 11v825h-463v-825q0 -6 -3 -11t-9.5 -8t-18 -5t-28.5 -2q-18 0 -29.5 2t-18 5t-9.5 8t-3 11v825h-444v-825q0 -6 -3 -11t-9.5 -8t-18 -5t-29.5 -2q-17 0 -28.5 2t-18.5 5t-9.5 8t-2.5 11v825
h-136q-14 0 -21.5 12.5t-7.5 37.5q0 13 2 22.5t5.5 16t9 9.5t12.5 3h136v96q0 94 17.5 160t52 107.5t85.5 60.5t117 19q44 0 76 -8t45.5 -14t19 -11.5t9 -13.5t5 -18.5t1.5 -23.5q0 -23 -4.5 -34t-15.5 -11q-8 0 -20 5t-29.5 11t-40 11t-50.5 5q-83 0 -116 -58.5t-33 -186.5
v-96h444v126q0 87 17.5 149t50.5 101.5t80 58.5t106 19q29 0 57 -4t40 -9t17 -9.5t8 -11.5t4.5 -17t1.5 -23q0 -23 -4.5 -34t-15.5 -11q-8 0 -17 2.5t-21.5 6t-30 6t-42.5 2.5q-70 0 -101 -55.5t-31 -170.5v-126h545q20 0 28.5 -11.5t8.5 -29.5v-885zM1693 1283
q0 -49 -12 -86t-33 -62.5t-50 -38.5t-63 -13q-49 0 -83 22t-61 49t-49.5 49t-47.5 22q-33 0 -48 -32.5t-15 -83.5q0 -14 -9.5 -20t-38.5 -6q-24 0 -35 8t-11 34q0 91 42.5 146t116.5 55q32 0 57.5 -10.5t47 -26.5t39 -34.5t33.5 -34.5t31.5 -26.5t32.5 -10.5q29 0 45 29
t16 88q0 14 10.5 20t34.5 6q28 0 39 -8.5t11 -34.5z" />
    <glyph glyph-name="f_f_idieresis.liga" unicode="ff&#xef;" horiz-adv-x="1639" 
d="M1472 20q0 -6 -3 -11t-9.5 -8t-18 -5t-28.5 -2q-18 0 -29.5 2t-18 5t-9.5 8t-3 11v825h-463v-825q0 -6 -3 -11t-9.5 -8t-18 -5t-28.5 -2q-18 0 -29.5 2t-18 5t-9.5 8t-3 11v825h-444v-825q0 -6 -3 -11t-9.5 -8t-18 -5t-29.5 -2q-17 0 -28.5 2t-18.5 5t-9.5 8t-2.5 11v825
h-136q-14 0 -21.5 12.5t-7.5 37.5q0 13 2 22.5t5.5 16t9 9.5t12.5 3h136v96q0 94 17.5 160t52 107.5t85.5 60.5t117 19q44 0 76 -8t45.5 -14t19 -11.5t9 -13.5t5 -18.5t1.5 -23.5q0 -23 -4.5 -34t-15.5 -11q-8 0 -20 5t-29.5 11t-40 11t-50.5 5q-83 0 -116 -58.5t-33 -186.5
v-96h444v126q0 87 17.5 149t50.5 101.5t80 58.5t106 19q29 0 57 -4t40 -9t17 -9.5t8 -11.5t4.5 -17t1.5 -23q0 -23 -4.5 -34t-15.5 -11q-8 0 -17 2.5t-21.5 6t-30 6t-42.5 2.5q-70 0 -101 -55.5t-31 -170.5v-126h545q20 0 28.5 -11.5t8.5 -29.5v-885zM1213 1229q0 22 3.5 37
t12 24t22.5 13t36 4q21 0 35.5 -4t23 -13t12 -24t3.5 -37q0 -21 -3.5 -36t-12 -24.5t-23 -13.5t-35.5 -4q-22 0 -36 4t-22.5 13.5t-12 24.5t-3.5 36zM1491 1229q0 22 3.5 37t12 24t22.5 13t36 4q21 0 35.5 -4t23 -13t12 -24t3.5 -37q0 -21 -3.5 -36t-12 -24.5t-23 -13.5
t-35.5 -4q-22 0 -36 4t-22.5 13.5t-12 24.5t-3.5 36z" />
    <glyph glyph-name="f_f_imacron.liga" unicode="ff&#x12b;" horiz-adv-x="1639" 
d="M1472 20q0 -6 -3 -11t-9.5 -8t-18 -5t-28.5 -2q-18 0 -29.5 2t-18 5t-9.5 8t-3 11v825h-463v-825q0 -6 -3 -11t-9.5 -8t-18 -5t-28.5 -2q-18 0 -29.5 2t-18 5t-9.5 8t-3 11v825h-444v-825q0 -6 -3 -11t-9.5 -8t-18 -5t-29.5 -2q-17 0 -28.5 2t-18.5 5t-9.5 8t-2.5 11v825
h-136q-14 0 -21.5 12.5t-7.5 37.5q0 13 2 22.5t5.5 16t9 9.5t12.5 3h136v96q0 94 17.5 160t52 107.5t85.5 60.5t117 19q44 0 76 -8t45.5 -14t19 -11.5t9 -13.5t5 -18.5t1.5 -23.5q0 -23 -4.5 -34t-15.5 -11q-8 0 -20 5t-29.5 11t-40 11t-50.5 5q-83 0 -116 -58.5t-33 -186.5
v-96h444v126q0 87 17.5 149t50.5 101.5t80 58.5t106 19q29 0 57 -4t40 -9t17 -9.5t8 -11.5t4.5 -17t1.5 -23q0 -23 -4.5 -34t-15.5 -11q-8 0 -17 2.5t-21.5 6t-30 6t-42.5 2.5q-70 0 -101 -55.5t-31 -170.5v-126h545q20 0 28.5 -11.5t8.5 -29.5v-885zM1628 1277q6 0 11 -3
t8 -9t5 -15.5t2 -22.5q0 -12 -2 -21t-5 -15.5t-8 -10t-11 -3.5h-415q-7 0 -12.5 3.5t-9 10t-5 15.5t-1.5 21q0 25 7 37.5t21 12.5h415z" />
    <glyph glyph-name="f_f_ibreve.liga" unicode="ff&#x12d;" horiz-adv-x="1639" 
d="M1472 20q0 -6 -3 -11t-9.5 -8t-18 -5t-28.5 -2q-18 0 -29.5 2t-18 5t-9.5 8t-3 11v825h-463v-825q0 -6 -3 -11t-9.5 -8t-18 -5t-28.5 -2q-18 0 -29.5 2t-18 5t-9.5 8t-3 11v825h-444v-825q0 -6 -3 -11t-9.5 -8t-18 -5t-29.5 -2q-17 0 -28.5 2t-18.5 5t-9.5 8t-2.5 11v825
h-136q-14 0 -21.5 12.5t-7.5 37.5q0 13 2 22.5t5.5 16t9 9.5t12.5 3h136v96q0 94 17.5 160t52 107.5t85.5 60.5t117 19q44 0 76 -8t45.5 -14t19 -11.5t9 -13.5t5 -18.5t1.5 -23.5q0 -23 -4.5 -34t-15.5 -11q-8 0 -20 5t-29.5 11t-40 11t-50.5 5q-83 0 -116 -58.5t-33 -186.5
v-96h444v126q0 87 17.5 149t50.5 101.5t80 58.5t106 19q29 0 57 -4t40 -9t17 -9.5t8 -11.5t4.5 -17t1.5 -23q0 -23 -4.5 -34t-15.5 -11q-8 0 -17 2.5t-21.5 6t-30 6t-42.5 2.5q-70 0 -101 -55.5t-31 -170.5v-126h545q20 0 28.5 -11.5t8.5 -29.5v-885zM1556 1361q0 11 9 17.5
t37 6.5q15 0 23.5 -1.5t13 -4.5t6 -7.5t1.5 -10.5q0 -68 -14.5 -118t-43 -83t-71 -49.5t-99.5 -16.5q-62 0 -105.5 17.5t-70.5 51.5t-39.5 82.5t-12.5 111.5q0 7 2 12.5t7.5 9t14 5t21.5 1.5q28 0 37 -5.5t9 -18.5q2 -40 10 -72t24 -54.5t41 -34.5t62 -12q61 0 97 40t41 133
z" />
    <glyph glyph-name="f_f_iogonek.liga" unicode="ff&#x12f;" horiz-adv-x="1620" 
d="M1472 1229q0 -23 -3.5 -38.5t-12.5 -25t-24 -13.5t-38 -4t-38 4t-24 13.5t-12.5 25t-3.5 38.5t3.5 38.5t12.5 25.5t24 14t38 4t38 -4t24 -14t12.5 -25.5t3.5 -38.5zM1530 -308q0 -11 -1.5 -18t-4.5 -12t-9 -7.5t-15 -4.5q-31 -8 -62 -11.5t-66 -3.5q-43 0 -77 9.5
t-57 27.5t-35.5 44.5t-12.5 61.5q0 14 2 30t10 35t24 41.5t44 50.5l65 65v845h-445v-825q0 -6 -3 -11t-9.5 -8t-18 -5t-28.5 -2q-18 0 -29.5 2t-18 5t-9.5 8t-3 11v825h-444v-825q0 -6 -3 -11t-9.5 -8t-18 -5t-29.5 -2q-17 0 -28.5 2t-18.5 5t-9.5 8t-2.5 11v825h-136
q-14 0 -21.5 12.5t-7.5 37.5q0 13 2 22.5t5.5 16t9 9.5t12.5 3h136v96q0 94 17.5 160t52 107.5t85.5 60.5t117 19q44 0 76 -8t45.5 -14t19 -11.5t9 -13.5t5 -18.5t1.5 -23.5q0 -23 -4.5 -34t-15.5 -11q-8 0 -20 5t-29.5 11t-40 11t-50.5 5q-83 0 -116 -58.5t-33 -186.5v-96
h444v107q0 94 18 160t51.5 107.5t83 60.5t112.5 19q22 0 43.5 -2t38.5 -5.5t29.5 -8t17 -9t7.5 -9t5 -11t3 -15.5t1 -22q0 -22 -4.5 -33t-15.5 -11q-8 0 -17.5 3.5t-23.5 8t-35 8.5t-52 4q-78 0 -110.5 -58.5t-32.5 -186.5v-107h526q20 0 29 -11.5t9 -29.5v-885
q0 -12 -4.5 -29.5t-12.5 -25.5l-82 -82q-33 -33 -41.5 -53.5t-8.5 -37.5q0 -59 80 -59h120q6 0 11 -1.5t8 -6t4.5 -12.5t1.5 -21z" />
    <glyph glyph-name="f_f_dotlessi.liga" unicode="ff&#x131;" horiz-adv-x="1620" 
d="M1441.5 1q-12.5 -7 -47.5 -7t-47 7t-12 19v825h-445v-825q0 -12 -12 -19t-47 -7t-47.5 7t-12.5 19v825h-444v-825q0 -12 -12.5 -19t-47.5 -7t-47 7t-12 19v825h-136q-29 0 -29 50q0 51 29 51h136v96q0 94 17.5 160t52 107.5t85.5 60.5t117 19q44 0 76 -8t50 -16
q17 -8 23.5 -23.5t6.5 -41.5q0 -45 -20 -45q-8 0 -20 5t-29.5 11t-40 11t-50.5 5q-83 0 -116 -58.5t-33 -186.5v-96h444v126q0 87 17.5 149t50.5 101.5t80 58.5t106 19q29 0 57 -4.5t45 -10.5q14 -5 20 -19t6 -40q0 -45 -20 -45q-8 0 -17 2.5t-21.5 6t-30 6t-42.5 2.5
q-70 0 -101 -55.5t-31 -170.5v-126h526q20 0 29 -11.5t9 -29.5v-885q0 -12 -12.5 -19z" />
    <glyph glyph-name="f_j.liga" unicode="fj" horiz-adv-x="1057" 
d="M908 1229q0 -23 -3.5 -38.5t-12 -25t-23.5 -13.5t-38 -4t-38 4t-24 13.5t-12.5 25t-3.5 38.5t3.5 38.5t12.5 25.5t24 14t38 4t38 -4t23.5 -14t12 -25.5t3.5 -38.5zM890 -43q0 -88 -11 -143.5t-39.5 -95t-78 -61.5t-125.5 -22q-19 0 -38 2t-36.5 6t-31 9.5t-18.5 9.5
t-7.5 9t-3.5 11t-1.5 11t-0.5 16q0 13 1.5 23t4.5 16.5t7.5 9.5t10.5 3q9 0 22.5 -5.5t36.5 -11t58 -5.5q33 0 58 11t41 36.5t24 66.5t8 121v871h-444v-825q0 -6 -3 -11t-9.5 -8t-18 -5t-29.5 -2q-17 0 -28.5 2t-18.5 5t-9.5 8t-2.5 11v825h-136q-14 0 -21.5 12.5t-7.5 37.5
q0 13 2 22.5t5.5 16t9 9.5t12.5 3h136v107q0 94 17.5 160t51.5 107.5t83.5 60.5t112.5 19q22 0 43 -2t38.5 -5.5t30 -8t17 -9t7.5 -9.5t4.5 -11.5t2.5 -15.5t1 -21q0 -22 -4.5 -33t-15.5 -11q-8 0 -17 3.5t-23.5 8t-35.5 8.5t-52 4q-78 0 -110 -58.5t-32 -186.5v-107h526
q20 0 28.5 -11.5t8.5 -29.5v-948z" />
    <glyph glyph-name="f_jcircumflex.liga" unicode="f&#x135;" horiz-adv-x="1057" 
d="M890 -63q0 -68 -11 -123.5t-39.5 -95t-78 -61.5t-125.5 -22q-19 0 -38 2t-36.5 6t-31 9.5t-18.5 9.5t-7.5 9t-3.5 11t-1.5 12t-0.5 15q0 13 1.5 23t4.5 16.5t7.5 9.5t10.5 3q9 0 27 -7t39.5 -11t50.5 -4q33 0 58 11t41 36.5t24 66.5t8 101v891h-444v-825q0 -6 -3 -11
t-9.5 -8t-18.5 -5t-29 -2t-28.5 2t-18.5 5t-9.5 8t-2.5 11v825h-136q-14 0 -21.5 12.5t-7.5 37.5q0 13 2 22.5t5.5 16t9 9.5t12.5 3h136v126q0 87 17.5 149t50.5 101.5t80 58.5t106 19q29 0 57 -4.5t43 -10t21 -11.5t9.5 -14t5 -18.5t1.5 -23.5q0 -22 -5 -33t-16 -11
q-8 0 -18 3.5t-24.5 8t-33.5 8.5t-44 4q-70 0 -100.5 -55.5t-30.5 -170.5v-126h526q20 0 28.5 -11.5t8.5 -29.5v-968zM706 1122q-5 -8 -10.5 -13t-12 -8t-16 -4t-22.5 -1q-20 0 -30.5 3t-13.5 9t1 15.5t14 22.5l165 232q5 7 10 11t12.5 6.5t19 3.5t28.5 1q15 0 25 -1
t17.5 -4t12.5 -7t10 -10l165 -232q9 -13 12.5 -22.5t0 -15.5t-14.5 -9t-30 -3q-15 0 -24 1t-15.5 4t-11 8t-10.5 13l-141 198z" />
    <glyph glyph-name="f_f_j.liga" unicode="ffj" horiz-adv-x="1620" 
d="M1472 1229q0 -23 -3.5 -38.5t-12.5 -25t-24 -13.5t-38 -4t-38 4t-24 13.5t-12.5 25t-3.5 38.5t3.5 38.5t12.5 25.5t24 14t38 4t38 -4t24 -14t12.5 -25.5t3.5 -38.5zM771 1053q0 94 18 160t51.5 107.5t83 60.5t112.5 19q24 0 45.5 -2t38.5 -5.5t28.5 -8t16 -9t7.5 -9.5
t4.5 -11.5t2.5 -15.5t1 -21q0 -22 -4.5 -33t-15.5 -11q-8 0 -17 3.5t-23 8t-35 8.5t-52 4q-78 0 -110.5 -58.5t-32.5 -186.5v-107h526q20 0 29 -11.5t9 -29.5v-968q0 -68 -11 -123.5t-39.5 -95t-78 -61.5t-125.5 -22q-20 0 -39 2t-36.5 6t-31 9.5t-18.5 9.5t-7.5 9
t-3.5 10.5t-1.5 11.5t-0.5 16q0 13 1.5 23t4.5 16.5t7.5 9.5t10.5 3q9 0 17.5 -3.5t21 -7.5t31 -7.5t47.5 -3.5q33 0 58 11t41.5 36.5t24.5 66.5t8 101v891h-445v-825q0 -6 -3 -11t-9.5 -8t-18 -5t-28.5 -2q-18 0 -29.5 2t-18 5t-9.5 8t-3 11v825h-444v-825q0 -6 -3 -11
t-9.5 -8t-18 -5t-29.5 -2q-17 0 -28.5 2t-18.5 5t-9.5 8t-2.5 11v825h-136q-14 0 -21.5 12.5t-7.5 37.5q0 13 2 22.5t5.5 16t9 9.5t12.5 3h136v96q0 94 17.5 160t52 107.5t85.5 60.5t117 19q44 0 76 -8t45.5 -14t19 -11.5t9 -13.5t5 -18.5t1.5 -23.5q0 -23 -4.5 -34
t-15.5 -11q-8 0 -20 5t-29.5 11t-40 11t-50.5 5q-83 0 -116 -58.5t-33 -186.5v-96h444v107z" />
    <glyph glyph-name="f_k.liga" unicode="fk" horiz-adv-x="1507" 
d="M831 1394q17 0 28.5 -1.5t18 -5t9.5 -8.5t3 -11v-832l382 385q7 9 15.5 14.5t18.5 9t23 5t30 1.5t29.5 -1t21 -4t12.5 -7.5t4 -11.5q0 -10 -6.5 -19.5t-21.5 -24.5l-362 -342l403 -480q12 -15 17 -23t5 -16q0 -7 -3 -12t-10 -8.5t-19 -5.5t-31 -2q-20 0 -33 1.5
t-22.5 4.5t-16 8t-12.5 12l-424 514v-514q0 -6 -3 -11t-9.5 -8t-18 -5t-28.5 -2q-18 0 -29.5 2t-18 5t-9.5 8t-3 11v1256q-2 -2 -5 -2.5t-9 -0.5q-12 0 -39 6.5t-55.5 10.5t-54 6t-48.5 2q-71 0 -116.5 -14.5t-71.5 -44.5t-35.5 -76.5t-9.5 -109.5v-107h205q7 0 12.5 -3
t9.5 -9.5t6 -16t2 -22.5q0 -25 -8 -37.5t-22 -12.5h-205v-825q0 -6 -3 -11t-9.5 -8t-18.5 -5t-29 -2t-28.5 2t-18.5 5t-9.5 8t-2.5 11v825h-136q-14 0 -21.5 12.5t-7.5 37.5q0 13 2 22.5t5.5 16t9 9.5t12.5 3h136v107q0 94 21 160t65 107.5t111 60.5t159 19q26 0 52.5 -2
t51.5 -5t44 -6.5t30 -6.5t18 -7t11 -12q0 10 3 16t9.5 10t18 5.5t29.5 1.5z" />
    <glyph glyph-name="f_f_k.liga" unicode="ffk" horiz-adv-x="2071" 
d="M2025 22q0 -7 -3 -12t-10 -8.5t-19 -5.5t-31 -2q-20 0 -33 1.5t-22.5 4.5t-16 8t-12.5 12l-424 514v-514q0 -6 -3 -11t-9.5 -8t-18 -5t-29.5 -2q-17 0 -28.5 2t-18.5 5t-9.5 8t-2.5 11v1256q-2 -2 -5 -2.5t-9 -0.5q-12 0 -39 6.5t-55.5 10.5t-54 6t-48.5 2
q-71 0 -116.5 -14.5t-71.5 -44.5t-36 -76.5t-10 -109.5v-107h206q7 0 12 -3t9 -9.5t6 -16t2 -22.5q0 -25 -8 -37.5t-21 -12.5h-206v-825q0 -6 -3 -11t-9.5 -8t-18 -5t-28.5 -2q-18 0 -29.5 2t-18 5t-9.5 8t-3 11v825h-444v-825q0 -6 -3 -11t-9.5 -8t-18.5 -5t-29 -2t-28.5 2
t-18.5 5t-9.5 8t-2.5 11v825h-136q-14 0 -21.5 12.5t-7.5 37.5q0 13 2 22.5t5.5 16t9 9.5t12.5 3h136v96q0 94 17.5 160t52 107.5t85.5 60.5t117 19q44 0 76 -8t45.5 -14t19 -11.5t9 -13.5t5 -18.5t1.5 -23.5q0 -23 -4.5 -34t-15.5 -11q-8 0 -20 5t-29.5 11t-40 11t-50.5 5
q-83 0 -116 -58.5t-33 -186.5v-96h444v107q0 94 21.5 160t65 107.5t110.5 60.5t159 19q27 0 53.5 -2t51.5 -5t44 -6.5t30 -6.5t18 -7t11 -12q0 10 3 16t9.5 10t18 5.5t28.5 1.5q18 0 29.5 -1.5t18 -5t9.5 -8.5t3 -11v-832l381 385q8 9 16.5 14.5t18.5 9t23 5t30 1.5t29.5 -1
t20.5 -4t12 -7.5t4 -11.5q0 -10 -6 -19.5t-21 -24.5l-362 -342l402 -480q13 -15 18 -23t5 -16z" />
    <glyph glyph-name="f_lacute.liga" unicode="f&#x13a;" horiz-adv-x="1057" 
d="M890 20q0 -6 -3 -11t-9.5 -8t-18 -5t-28.5 -2q-18 0 -29.5 2t-18 5t-9.5 8t-3 11v1256q-2 -2 -5 -2.5t-9 -0.5q-12 0 -39 6.5t-55.5 10.5t-54 6t-48.5 2q-71 0 -116.5 -14.5t-71.5 -44.5t-35.5 -76.5t-9.5 -109.5v-107h205q7 0 12.5 -3t9.5 -9.5t6 -16t2 -22.5
q0 -25 -8 -37.5t-22 -12.5h-205v-825q0 -6 -3 -11t-9.5 -8t-18 -5t-29.5 -2q-17 0 -28.5 2t-18.5 5t-9.5 8t-2.5 11v825h-136q-14 0 -21.5 12.5t-7.5 37.5q0 13 2 22.5t5.5 16t9 9.5t12.5 3h136v107q0 94 21 160t65 107.5t111 60.5t159 19q26 0 52.5 -2t51.5 -5t44 -6.5
t30 -6.5t18 -7t11 -12q0 10 3 16t9.5 10t18 5.5t29.5 1.5q17 0 28.5 -1.5t18 -5t9.5 -8.5t3 -11v-1348zM993 1726q10 11 19.5 17.5t20.5 10t25 4.5t32 1q21 0 34 -3.5t18.5 -9t4 -13t-8.5 -15.5l-228 -219q-10 -10 -18 -15.5t-17 -8.5t-19.5 -4t-25.5 -1q-17 0 -26.5 2.5
t-12.5 7t-1 11.5t10 16zM641 1364z" />
    <glyph glyph-name="f_lcaron.liga" unicode="f&#x13e;" horiz-adv-x="1098" 
d="M890 20q0 -6 -3 -11t-9.5 -8t-18 -5t-28.5 -2q-18 0 -29.5 2t-18 5t-9.5 8t-3 11v1256q-2 -2 -5 -2.5t-9 -0.5q-12 0 -39 6.5t-55.5 10.5t-54 6t-48.5 2q-71 0 -116.5 -14.5t-71.5 -44.5t-35.5 -76.5t-9.5 -109.5v-107h205q7 0 12.5 -3t9.5 -9.5t6 -16t2 -22.5
q0 -25 -8 -37.5t-22 -12.5h-205v-825q0 -6 -3 -11t-9.5 -8t-18 -5t-29.5 -2q-17 0 -28.5 2t-18.5 5t-9.5 8t-2.5 11v825h-136q-14 0 -21.5 12.5t-7.5 37.5q0 13 2 22.5t5.5 16t9 9.5t12.5 3h136v107q0 94 21 160t65 107.5t111 60.5t159 19q26 0 52.5 -2t51.5 -5t44 -6.5
t30 -6.5t18 -7t11 -12q0 10 3 16t9.5 10t18 5.5t29.5 1.5q17 0 28.5 -1.5t18 -5t9.5 -8.5t3 -11v-1348zM1066 1365q3 9 8 15t13 9t21 4.5t31 1.5q15 0 23.5 -1.5t12.5 -5t4.5 -9.5t-1.5 -14l-125 -312q-1 -4 -4 -7t-9.5 -5t-17 -3t-26.5 -1q-11 0 -17.5 1.5t-9.5 4.5t-4 7
t1 9zM816 1002z" />
    <glyph glyph-name="f_uni013C.liga" unicode="f&#x13c;" horiz-adv-x="1057" 
d="M890 20q0 -6 -3 -11t-9.5 -8t-18 -5t-28.5 -2q-18 0 -29.5 2t-18 5t-9.5 8t-3 11v1256q-2 -2 -5 -2.5t-9 -0.5q-12 0 -39 6.5t-55.5 10.5t-54 6t-48.5 2q-71 0 -116.5 -14.5t-71.5 -44.5t-35.5 -76.5t-9.5 -109.5v-107h205q7 0 12.5 -3t9.5 -9.5t6 -16t2 -22.5
q0 -25 -8 -37.5t-22 -12.5h-205v-825q0 -6 -3 -11t-9.5 -8t-18 -5t-29.5 -2q-17 0 -28.5 2t-18.5 5t-9.5 8t-2.5 11v825h-136q-14 0 -21.5 12.5t-7.5 37.5q0 13 2 22.5t5.5 16t9 9.5t12.5 3h136v107q0 94 21 160t65 107.5t111 60.5t159 19q26 0 52.5 -2t51.5 -5t44 -6.5
t30 -6.5t18 -7t11 -12q0 10 3 16t9.5 10t18 5.5t29.5 1.5q17 0 28.5 -1.5t18 -5t9.5 -8.5t3 -11v-1348zM762 -132q7 21 22 27.5t54 6.5q38 0 44.5 -12t-1.5 -29l-95 -197q-9 -19 -22.5 -24t-43.5 -5q-27 0 -31 8.5t3 28.5z" />
    <glyph glyph-name="f_t.liga" unicode="ft" horiz-adv-x="1238" 
d="M327 845v-825q0 -6 -3 -11t-9.5 -8t-18.5 -5t-29 -2t-28.5 2t-18.5 5t-9.5 8t-2.5 11v825h-136q-14 0 -21.5 12.5t-7.5 37.5q0 13 2 22.5t5.5 16t9 9.5t12.5 3h136v103q0 95 17 162t51.5 109t86.5 61t121 19q36 0 69.5 -7.5t47.5 -14t19.5 -12t9 -13.5t5 -18.5t1.5 -23.5
q0 -14 -1.5 -22.5t-4 -13.5t-6 -7t-8.5 -2q-8 0 -19 5t-27.5 11t-39 11t-52.5 5q-42 0 -71 -13.5t-46.5 -43t-25.5 -76t-8 -112.5v-107h442v222q0 6 3 11t9.5 8.5t18 5t29.5 1.5q17 0 28.5 -1.5t18 -5t9.5 -8.5t3 -11v-222h250q7 0 12.5 -3t9.5 -9.5t6 -16t2 -22.5
q0 -25 -8 -37.5t-22 -12.5h-250v-547q0 -103 29.5 -157t107.5 -54q24 0 43.5 5t34.5 11t26 11t19 5q5 0 8.5 -2t6 -7.5t4 -14t1.5 -21.5q0 -21 -3.5 -34t-11 -20.5t-21.5 -14t-33 -11t-40 -7t-41 -2.5q-68 0 -115 18t-77 54.5t-43.5 92.5t-13.5 132v563h-442z" />
    <glyph glyph-name="f_uni021B.liga" unicode="f&#x21b;" horiz-adv-x="1238" 
d="M327 845v-825q0 -6 -3 -11t-9.5 -8t-18.5 -5t-29 -2t-28.5 2t-18.5 5t-9.5 8t-2.5 11v825h-136q-14 0 -21.5 12.5t-7.5 37.5q0 13 2 22.5t5.5 16t9 9.5t12.5 3h136v103q0 95 17 162t51.5 109t86.5 61t121 19q36 0 69.5 -7.5t47.5 -14t19.5 -12t9 -13.5t5 -18.5t1.5 -23.5
q0 -14 -1.5 -22.5t-4 -13.5t-6 -7t-8.5 -2q-8 0 -19 5t-27.5 11t-39 11t-52.5 5q-42 0 -71 -13.5t-46.5 -43t-25.5 -76t-8 -112.5v-107h442v222q0 6 3 11t9.5 8.5t18 5t29.5 1.5q17 0 28.5 -1.5t18 -5t9.5 -8.5t3 -11v-222h250q7 0 12.5 -3t9.5 -9.5t6 -16t2 -22.5
q0 -25 -8 -37.5t-22 -12.5h-250v-547q0 -103 29.5 -157t107.5 -54q24 0 43.5 5t34.5 11t26 11t19 5q5 0 8.5 -2t6 -7.5t4 -14t1.5 -21.5q0 -21 -3.5 -34t-11 -20.5t-21.5 -14t-33 -11t-40 -7t-41 -2.5q-68 0 -115 18t-77 54.5t-43.5 92.5t-13.5 132v563h-442zM908 -132
q7 21 22 27.5t54 6.5q38 0 44.5 -12t-1.5 -29l-95 -197q-9 -19 -22.5 -24t-43.5 -5q-27 0 -31 8.5t3 28.5z" />
    <glyph glyph-name="f_tcaron.liga" unicode="f&#x165;" horiz-adv-x="1272" 
d="M327 845v-825q0 -6 -3 -11t-9.5 -8t-18.5 -5t-29 -2t-28.5 2t-18.5 5t-9.5 8t-2.5 11v825h-136q-14 0 -21.5 12.5t-7.5 37.5q0 13 2 22.5t5.5 16t9 9.5t12.5 3h136v103q0 95 17 162t51.5 109t86.5 61t121 19q36 0 69.5 -7.5t47.5 -14t19.5 -12t9 -13.5t5 -18.5t1.5 -23.5
q0 -14 -1.5 -22.5t-4 -13.5t-6 -7t-8.5 -2q-8 0 -19 5t-27.5 11t-39 11t-52.5 5q-42 0 -71 -13.5t-46.5 -43t-25.5 -76t-8 -112.5v-107h442v222q0 6 3 11t9.5 8.5t18 5t29.5 1.5q17 0 28.5 -1.5t18 -5t9.5 -8.5t3 -11v-222h250q7 0 12.5 -3t9.5 -9.5t6 -16t2 -22.5
q0 -25 -8 -37.5t-22 -12.5h-250v-547q0 -103 29.5 -157t107.5 -54q24 0 43.5 5t34.5 11t26 11t19 5q5 0 8.5 -2t6 -7.5t4 -14t1.5 -21.5q0 -21 -3.5 -34t-11 -20.5t-21.5 -14t-33 -11t-40 -7t-41 -2.5q-68 0 -115 18t-77 54.5t-43.5 92.5t-13.5 132v563h-442zM1127 1420
q3 9 8 15t13 9t21 4.5t31 1.5q15 0 23.5 -1.5t12.5 -5t4.5 -9.5t-1.5 -14l-125 -312q-1 -4 -4 -7t-9.5 -5t-17 -3t-26.5 -1q-11 0 -17.5 1.5t-9.5 4.5t-4 7t1 9zM877 1057z" />
    <glyph glyph-name="f_f_t.liga" unicode="fft" horiz-adv-x="1802" 
d="M1732 74q0 -21 -3.5 -34t-11 -20.5t-22 -14t-33.5 -11t-40 -7t-41 -2.5q-67 0 -114 18t-77 54.5t-43.5 92.5t-13.5 132v563h-443v-825q0 -6 -3 -11t-9.5 -8t-18 -5t-28.5 -2q-18 0 -29.5 2t-18 5t-9.5 8t-3 11v825h-444v-825q0 -6 -3 -11t-9.5 -8t-18.5 -5t-29 -2
t-28.5 2t-18.5 5t-9.5 8t-2.5 11v825h-136q-14 0 -21.5 12.5t-7.5 37.5q0 13 2 22.5t5.5 16t9 9.5t12.5 3h136v92q0 95 17 162t51.5 109t86.5 61t121 19q38 0 71 -8t46.5 -14t19 -11.5t9 -13.5t5 -18.5t1.5 -23.5q0 -14 -1.5 -22.5t-4 -13.5t-6 -7t-8.5 -2q-8 0 -19 5
t-27.5 11t-39 11t-52.5 5q-42 0 -71 -13.5t-47 -43t-25.5 -76t-7.5 -112.5v-96h444v103q0 95 17.5 162t52 109t86.5 61t121 19q34 0 66 -7t48 -14t22 -12.5t9.5 -13.5t5 -18.5t1.5 -23.5q0 -14 -1.5 -22.5t-4 -13.5t-6.5 -7t-9 -2q-8 0 -19 5t-27 11t-38.5 11t-52.5 5
q-42 0 -71 -13.5t-47 -43t-26 -76t-8 -112.5v-107h443v222q0 6 2.5 11t9.5 8.5t18.5 5t28.5 1.5q18 0 29.5 -1.5t18 -5t9.5 -8.5t3 -11v-222h250q7 0 12.5 -3t9.5 -9.5t6 -16t2 -22.5q0 -25 -8 -37.5t-22 -12.5h-250v-547q0 -103 29.5 -157t107.5 -54q24 0 43.5 5t34.5 11
t25.5 11t18.5 5q5 0 9 -2t6.5 -7.5t4 -14t1.5 -21.5z" />
    <glyph glyph-name="t_f.liga" unicode="tf" horiz-adv-x="1231" 
d="M827 946v103q0 95 17.5 162t52 109t86 61t120.5 19q32 0 64.5 -6.5t49.5 -14t22.5 -13t9 -13.5t5 -18.5t1.5 -23.5q0 -14 -1.5 -22.5t-4 -13.5t-6 -7t-8.5 -2q-8 0 -31.5 10t-49.5 16t-56 6q-42 0 -71 -13.5t-47 -43t-26 -76t-8 -112.5v-107h222q7 0 12.5 -3t9.5 -9.5
t6 -16t2 -22.5q0 -25 -8 -37.5t-22 -12.5h-222v-825q0 -6 -3 -11t-9.5 -8t-18 -5t-29.5 -2q-17 0 -28.5 2t-18.5 5t-9.5 8t-2.5 11v825h-504v-547q0 -103 29.5 -157t107.5 -54q24 0 43.5 5t34.5 11t25.5 11t18.5 5q5 0 9 -2t6.5 -7.5t4 -14t1.5 -21.5q0 -21 -3.5 -34
t-11 -20.5t-22 -14t-33.5 -11t-40 -7t-41 -2.5q-67 0 -114 18t-77 54.5t-43.5 92.5t-13.5 132v563h-135q-14 0 -22 12.5t-8 37.5q0 13 2 22.5t6 16t9.5 9.5t12.5 3h135v222q0 6 2.5 11t9.5 8.5t18.5 5t28.5 1.5q18 0 29.5 -1.5t18 -5t9.5 -8.5t3 -11v-222h504z" />
    <glyph glyph-name="t_i.liga" unicode="ti" horiz-adv-x="1109" 
d="M903 946q23 0 31 -11.5t8 -31.5v-883q0 -6 -3 -11t-9.5 -8t-18 -5t-28.5 -2q-18 0 -29.5 2t-18 5t-9.5 8t-3 11v825h-500v-547q0 -103 29.5 -157t107.5 -54q24 0 43.5 5t34.5 11t25.5 11t18.5 5q5 0 9 -2t6.5 -7.5t4 -14t1.5 -21.5q0 -21 -3.5 -34t-11 -20.5t-22 -14
t-33.5 -11t-40 -7t-41 -2.5q-67 0 -114 18t-77 54.5t-43.5 92.5t-13.5 132v563h-135q-14 0 -22 12.5t-8 37.5q0 13 2 22.5t6 16t9.5 9.5t12.5 3h135v222q0 6 2.5 11t9.5 8.5t18.5 5t28.5 1.5q18 0 29.5 -1.5t18 -5t9.5 -8.5t3 -11v-222h580zM960 1230q0 -48 -17 -65t-62 -17
q-44 0 -60.5 16.5t-16.5 64.5t17 65t62 17q44 0 60.5 -16.5t16.5 -64.5zM656 946z" />
    <glyph glyph-name="t_igrave.liga" unicode="t&#xec;" horiz-adv-x="1109" 
d="M903 946q23 0 31 -11.5t8 -31.5v-883q0 -6 -3 -11t-9.5 -8t-18 -5t-28.5 -2q-18 0 -29.5 2t-18 5t-9.5 8t-3 11v825h-500v-547q0 -103 29.5 -157t107.5 -54q24 0 43.5 5t34.5 11t25.5 11t18.5 5q5 0 9 -2t6.5 -7.5t4 -14t1.5 -21.5q0 -21 -3.5 -34t-11 -20.5t-22 -14
t-33.5 -11t-40 -7t-41 -2.5q-67 0 -114 18t-77 54.5t-43.5 92.5t-13.5 132v563h-135q-14 0 -22 12.5t-8 37.5q0 13 2 22.5t6 16t9.5 9.5t12.5 3h135v222q0 6 2.5 11t9.5 8.5t18.5 5t28.5 1.5q18 0 29.5 -1.5t18 -5t9.5 -8.5t3 -11v-222h580zM919 1133q6 -9 7.5 -16t-2 -11.5
t-12.5 -7t-24 -2.5t-25 1t-17.5 4t-13.5 8.5t-13 15.5l-174 234q-7 9 -8 16.5t4 13t17 8.5t31 3t32 -1.5t22 -5t16 -10.5t14 -17z" />
    <glyph glyph-name="t_iacute.liga" unicode="t&#xed;" horiz-adv-x="1109" 
d="M903 946q23 0 31 -11.5t8 -31.5v-883q0 -6 -3 -11t-9.5 -8t-18 -5t-28.5 -2q-18 0 -29.5 2t-18 5t-9.5 8t-3 11v825h-500v-547q0 -103 29.5 -157t107.5 -54q24 0 43.5 5t34.5 11t25.5 11t18.5 5q5 0 9 -2t6.5 -7.5t4 -14t1.5 -21.5q0 -21 -3.5 -34t-11 -20.5t-22 -14
t-33.5 -11t-40 -7t-41 -2.5q-67 0 -114 18t-77 54.5t-43.5 92.5t-13.5 132v563h-135q-14 0 -22 12.5t-8 37.5q0 13 2 22.5t6 16t9.5 9.5t12.5 3h135v222q0 6 2.5 11t9.5 8.5t18.5 5t28.5 1.5q18 0 29.5 -1.5t18 -5t9.5 -8.5t3 -11v-222h580zM973 1366q6 10 13 17t16.5 10.5
t23 5t32.5 1.5t31 -3t17 -8.5t3.5 -13t-8.5 -16.5l-174 -234q-7 -10 -12.5 -15.5t-12.5 -8.5t-17 -4t-25 -1t-24.5 2.5t-13 7t-2.5 11.5t7 16z" />
    <glyph glyph-name="t_icircumflex.liga" unicode="t&#xee;" horiz-adv-x="1109" 
d="M903 946q23 0 31 -11.5t8 -31.5v-883q0 -6 -3 -11t-9.5 -8t-18 -5t-28.5 -2q-18 0 -29.5 2t-18 5t-9.5 8t-3 11v825h-500v-547q0 -103 29.5 -157t107.5 -54q24 0 43.5 5t34.5 11t25.5 11t18.5 5q5 0 9 -2t6.5 -7.5t4 -14t1.5 -21.5q0 -21 -3.5 -34t-11 -20.5t-22 -14
t-33.5 -11t-40 -7t-41 -2.5q-67 0 -114 18t-77 54.5t-43.5 92.5t-13.5 132v563h-135q-14 0 -22 12.5t-8 37.5q0 13 2 22.5t6 16t9.5 9.5t12.5 3h135v222q0 6 2.5 11t9.5 8.5t18.5 5t28.5 1.5q18 0 29.5 -1.5t18 -5t9.5 -8.5t3 -11v-222h580zM729 1122q-6 -8 -11 -13t-12 -8
t-16 -4t-22 -1q-20 0 -31 3t-14.5 9t0 15.5t13.5 22.5l169 232q5 7 10.5 11t13.5 6.5t19.5 3.5t28.5 1q15 0 25 -1t17.5 -4t12.5 -7t10 -10l169 -232q9 -13 12.5 -22.5t0 -15.5t-14.5 -9t-30 -3q-15 0 -24 1t-15.5 4t-11 8t-10.5 13l-145 198zM473 946z" />
    <glyph glyph-name="t_idieresis.liga" unicode="t&#xef;" horiz-adv-x="1109" 
d="M903 946q23 0 31 -11.5t8 -31.5v-883q0 -6 -3 -11t-9.5 -8t-18 -5t-28.5 -2q-18 0 -29.5 2t-18 5t-9.5 8t-3 11v825h-500v-547q0 -103 29.5 -157t107.5 -54q24 0 43.5 5t34.5 11t25.5 11t18.5 5q5 0 9 -2t6.5 -7.5t4 -14t1.5 -21.5q0 -21 -3.5 -34t-11 -20.5t-22 -14
t-33.5 -11t-40 -7t-41 -2.5q-67 0 -114 18t-77 54.5t-43.5 92.5t-13.5 132v563h-135q-14 0 -22 12.5t-8 37.5q0 13 2 22.5t6 16t9.5 9.5t12.5 3h135v222q0 6 2.5 11t9.5 8.5t18.5 5t28.5 1.5q18 0 29.5 -1.5t18 -5t9.5 -8.5t3 -11v-222h580zM803 1211q0 -45 -16.5 -61.5
t-58.5 -16.5t-58 16t-16 61q0 46 16.5 62.5t57.5 16.5q43 0 59 -16t16 -62zM1100 1211q0 -45 -16.5 -61.5t-58.5 -16.5t-58 16t-16 61q0 46 16.5 62.5t57.5 16.5q43 0 59 -16t16 -62zM506 946z" />
    <glyph glyph-name="t_imacron.liga" unicode="t&#x12b;" horiz-adv-x="1109" 
d="M903 946q23 0 31 -11.5t8 -31.5v-883q0 -6 -3 -11t-9.5 -8t-18 -5t-28.5 -2q-18 0 -29.5 2t-18 5t-9.5 8t-3 11v825h-500v-547q0 -103 29.5 -157t107.5 -54q24 0 43.5 5t34.5 11t25.5 11t18.5 5q5 0 9 -2t6.5 -7.5t4 -14t1.5 -21.5q0 -21 -3.5 -34t-11 -20.5t-22 -14
t-33.5 -11t-40 -7t-41 -2.5q-67 0 -114 18t-77 54.5t-43.5 92.5t-13.5 132v563h-135q-14 0 -22 12.5t-8 37.5q0 13 2 22.5t6 16t9.5 9.5t12.5 3h135v222q0 6 2.5 11t9.5 8.5t18.5 5t28.5 1.5q18 0 29.5 -1.5t18 -5t9.5 -8.5t3 -11v-222h580zM1107 1277q6 0 11 -3t8 -9
t5 -15.5t2 -22.5q0 -12 -2 -21t-5 -15.5t-8 -10t-11 -3.5h-462q-7 0 -12 3.5t-8.5 10t-5.5 15.5t-2 21q0 13 2 22.5t5.5 15.5t8.5 9t12 3h462zM469 946z" />
    <glyph glyph-name="t_itilde.liga" unicode="t&#x129;" horiz-adv-x="1109" 
d="M903 946q23 0 31 -11.5t8 -31.5v-883q0 -6 -3 -11t-9.5 -8t-18 -5t-28.5 -2q-18 0 -29.5 2t-18 5t-9.5 8t-3 11v825h-500v-547q0 -103 29.5 -157t107.5 -54q24 0 43.5 5t34.5 11t25.5 11t18.5 5q5 0 9 -2t6.5 -7.5t4 -14t1.5 -21.5q0 -21 -3.5 -34t-11 -20.5t-22 -14
t-33.5 -11t-40 -7t-41 -2.5q-67 0 -114 18t-77 54.5t-43.5 92.5t-13.5 132v563h-135q-14 0 -22 12.5t-8 37.5q0 13 2 22.5t6 16t9.5 9.5t12.5 3h135v222q0 6 2.5 11t9.5 8.5t18.5 5t28.5 1.5q18 0 29.5 -1.5t18 -5t9.5 -8.5t3 -11v-222h580zM1181 1302q0 -98 -49.5 -149.5
t-130.5 -51.5q-36 0 -64.5 10.5t-52.5 26.5t-44.5 34.5t-40.5 34.5t-40 26.5t-43 10.5q-44 0 -61 -32.5t-17 -84.5q0 -7 -1.5 -12t-7 -8t-16 -4.5t-27.5 -1.5q-13 0 -22 2t-14 6.5t-7.5 13t-2.5 21.5q0 90 46.5 145t132.5 55q54 0 92.5 -22.5t70 -49t60.5 -49t63 -22.5
q39 0 58.5 29t19.5 88q0 14 8.5 20t37.5 6q32 0 42 -8t10 -34z" />
    <glyph glyph-name="t_ibreve.liga" unicode="t&#x12d;" horiz-adv-x="1109" 
d="M903 946q23 0 31 -11.5t8 -31.5v-883q0 -6 -3 -11t-9.5 -8t-18 -5t-28.5 -2q-18 0 -29.5 2t-18 5t-9.5 8t-3 11v825h-500v-547q0 -103 29.5 -157t107.5 -54q24 0 43.5 5t34.5 11t25.5 11t18.5 5q5 0 9 -2t6.5 -7.5t4 -14t1.5 -21.5q0 -21 -3.5 -34t-11 -20.5t-22 -14
t-33.5 -11t-40 -7t-41 -2.5q-67 0 -114 18t-77 54.5t-43.5 92.5t-13.5 132v563h-135q-14 0 -22 12.5t-8 37.5q0 13 2 22.5t6 16t9.5 9.5t12.5 3h135v222q0 6 2.5 11t9.5 8.5t18.5 5t28.5 1.5q18 0 29.5 -1.5t18 -5t9.5 -8.5t3 -11v-222h580zM1027 1368q0 11 9 17.5t37 6.5
q15 0 23.5 -1.5t13.5 -4.5t6.5 -7.5t1.5 -10.5q0 -68 -16 -118t-46.5 -83t-75.5 -49.5t-102 -16.5q-62 0 -107 18t-74.5 51.5t-43.5 82.5t-14 112q0 14 9.5 20.5t35.5 6.5q14 0 23 -1.5t14 -4.5t7 -7.5t2 -10.5q2 -39 11.5 -71t27.5 -54.5t45 -34.5t64 -12q31 0 57 9.5
t46 30t32 53t14 79.5zM491 946z" />
    <glyph glyph-name="t_iogonek.liga" unicode="t&#x12f;" horiz-adv-x="1109" 
d="M901 946q24 0 32.5 -11.5t8.5 -35.5v-879q0 -12 -4.5 -29.5t-12.5 -25.5l-81 -82q-17 -17 -27 -30t-15 -23.5t-6.5 -19.5t-1.5 -18q0 -30 19 -44.5t60 -14.5h121q6 0 10.5 -1.5t7.5 -6t4.5 -12.5t1.5 -21q0 -11 -1.5 -18t-4.5 -12t-9 -7.5t-15 -4.5q-31 -8 -62 -11.5
t-66 -3.5q-43 0 -76.5 9.5t-57 27.5t-35.5 44.5t-12 61.5q0 14 2 30t10 35t23.5 41.5t43.5 50.5l65 65v845h-500v-547q0 -103 29.5 -157t107.5 -54q24 0 43.5 5t34.5 11t25.5 11t18.5 5q5 0 9 -2t6.5 -7.5t4 -14t1.5 -21.5q0 -21 -3.5 -34t-11 -20.5t-22 -14t-33.5 -11
t-40 -7t-41 -2.5q-67 0 -114 18t-77 54.5t-43.5 92.5t-13.5 132v563h-135q-14 0 -22 12.5t-8 37.5q0 13 2 22.5t6 16t9.5 9.5t12.5 3h135v222q0 6 2.5 11t9.5 8.5t18.5 5t28.5 1.5q18 0 29.5 -1.5t18 -5t9.5 -8.5t3 -11v-222h578zM960 1229q0 -23 -3.5 -38.5t-12 -25
t-23.5 -13.5t-38 -4t-38 4t-24 13.5t-12.5 25t-3.5 38.5t3.5 38.5t12.5 25.5t24 14t38 4t38 -4t23.5 -14t12 -25.5t3.5 -38.5z" />
    <glyph glyph-name="t_dotlessi.liga" unicode="t&#x131;" horiz-adv-x="1109" 
d="M903 946q23 0 31 -11.5t8 -31.5v-883q0 -6 -3 -11t-9.5 -8t-18 -5t-28.5 -2q-18 0 -29.5 2t-18 5t-9.5 8t-3 11v825h-500v-547q0 -103 29.5 -157t107.5 -54q24 0 43.5 5t34.5 11t25.5 11t18.5 5q5 0 9 -2t6.5 -7.5t4 -14t1.5 -21.5q0 -21 -3.5 -34t-11 -20.5t-22 -14
t-33.5 -11t-40 -7t-41 -2.5q-67 0 -114 18t-77 54.5t-43.5 92.5t-13.5 132v563h-135q-14 0 -22 12.5t-8 37.5q0 13 2 22.5t6 16t9.5 9.5t12.5 3h135v222q0 6 2.5 11t9.5 8.5t18.5 5t28.5 1.5q18 0 29.5 -1.5t18 -5t9.5 -8.5t3 -11v-222h580z" />
    <glyph glyph-name="t_t.liga" unicode="tt" horiz-adv-x="1274" 
d="M1203 74q0 -21 -3 -34t-11 -20t-22 -13.5t-33 -11.5t-40 -7.5t-41 -2.5q-68 0 -115 18t-76.5 54.5t-43 92.5t-13.5 132v563h-482v-547q0 -103 29.5 -157t107.5 -54q24 0 43.5 5t34.5 11t25.5 11t18.5 5q5 0 9 -2t6.5 -7.5t4 -14t1.5 -21.5q0 -11 -0.5 -17.5t-2 -13.5
t-4.5 -13.5t-10.5 -12.5t-21 -12t-32 -10.5t-39.5 -7t-41 -2.5q-67 0 -114 18t-77 54.5t-43.5 92.5t-13.5 132v563h-135q-14 0 -22 12.5t-8 37.5q0 13 2 22.5t6 16t9.5 9.5t12.5 3h135v222q0 6 2.5 11t9.5 8.5t18.5 5t28.5 1.5q18 0 29.5 -1.5t18 -5t9.5 -8.5t3 -11v-222
h482v263q0 6 2.5 11t9.5 8t18.5 5t28.5 2t29 -2t18.5 -5t9.5 -8t3 -11v-263h250q7 0 12 -3t9 -9.5t6 -16t2 -22.5q0 -25 -8 -37.5t-21 -12.5h-250v-547q0 -103 29.5 -157t106.5 -54q24 0 43.5 5t34.5 11t26 11t19 5q5 0 8.5 -2t6 -7.5t4 -14t1.5 -21.5z" />
    <glyph glyph-name="t_t_f.liga" unicode="ttf" horiz-adv-x="1832" 
d="M1856 1311q0 -14 -1.5 -22.5t-4 -13.5t-6.5 -7t-9 -2q-8 0 -19 5t-27 11t-38.5 11t-52.5 5q-42 0 -71 -13.5t-46.5 -43t-25.5 -76t-8 -112.5v-107h222q7 0 12 -3t9 -9.5t6 -16t2 -22.5q0 -25 -8 -37.5t-21 -12.5h-222v-825q0 -6 -3 -11t-9.5 -8t-18.5 -5t-29 -2t-28.5 2
t-18.5 5t-9.5 8t-2.5 11v825h-504v-547q0 -103 29.5 -157t106.5 -54q24 0 43.5 5t34.5 11t26 11t19 5q5 0 8.5 -2t6 -7.5t4 -14t1.5 -21.5q0 -21 -3 -34t-11 -20.5t-23 -14t-33 -11t-39 -7t-41 -2.5q-68 0 -115 18t-76.5 54.5t-43 92.5t-13.5 132v563h-482v-547
q0 -103 29.5 -157t107.5 -54q24 0 43.5 5t34.5 11t25.5 11t18.5 5q5 0 9 -2t6.5 -7.5t4 -14t1.5 -21.5q0 -21 -3.5 -34t-11 -20.5t-23 -14t-33.5 -11t-39 -7t-41 -2.5q-67 0 -114 18t-77 54.5t-43.5 92.5t-13.5 132v563h-135q-14 0 -22 12.5t-8 37.5q0 13 2 22.5t6 16
t9.5 9.5t12.5 3h135v222q0 6 2.5 11t9.5 8.5t18.5 5t28.5 1.5q18 0 29.5 -1.5t18 -5t9.5 -8.5t3 -11v-222h482v263q0 6 2.5 11t9.5 8t18.5 5t28.5 2q18 0 29.5 -2t18 -5t9.5 -8t3 -11v-263h504v103q0 95 17 162t51.5 109t86.5 61t121 19q37 0 67.5 -7t46.5 -14t22 -12.5
t9.5 -13.5t5 -18.5t1.5 -23.5z" />
    <glyph glyph-name="t_t_i.liga" unicode="tti" horiz-adv-x="1709" 
d="M323 845v-547q0 -103 29.5 -157t107.5 -54q24 0 43.5 5t34.5 11t25.5 11t18.5 5q5 0 9 -2t6.5 -7.5t4 -14t1.5 -21.5q0 -21 -3.5 -34t-11 -20.5t-22 -14t-33.5 -11t-40 -7t-41 -2.5q-67 0 -114 18t-77 54.5t-43.5 92.5t-13.5 132v563h-135q-14 0 -22 12.5t-8 37.5
q0 13 2 22.5t6 16t9.5 9.5t12.5 3h135v222q0 6 2.5 11t9.5 8.5t18.5 5t28.5 1.5q18 0 29.5 -1.5t18 -5t9.5 -8.5t3 -11v-222h482v263q0 6 2.5 11t9.5 8t18.5 5t28.5 2q18 0 29.5 -2t18 -5t9.5 -8t3 -11v-263h580q22 0 30.5 -11.5t8.5 -31.5v-883q0 -6 -3 -11t-9.5 -8t-18 -5
t-29.5 -2q-17 0 -28.5 2t-18.5 5t-9.5 8t-2.5 11v825h-500v-547q0 -103 29.5 -157t106.5 -54q24 0 43.5 5t34.5 11t26 11t19 5q5 0 8.5 -2t6 -7.5t4 -14t1.5 -21.5q0 -21 -3 -34t-11 -20.5t-22 -14t-33 -11t-40 -7t-41 -2.5q-68 0 -115 18t-76.5 54.5t-43 92.5t-13.5 132
v563h-482zM1561 1230q0 -48 -17 -65t-62 -17q-44 0 -60.5 16.5t-16.5 64.5t17 65t62 17q44 0 60.5 -16.5t16.5 -64.5zM1257 946z" />
    <glyph glyph-name="t_t_igrave.liga" unicode="tt&#xec;" horiz-adv-x="1709" 
d="M323 845v-547q0 -103 29.5 -157t107.5 -54q24 0 43.5 5t34.5 11t25.5 11t18.5 5q5 0 9 -2t6.5 -7.5t4 -14t1.5 -21.5q0 -21 -3.5 -34t-11 -20.5t-22 -14t-33.5 -11t-40 -7t-41 -2.5q-67 0 -114 18t-77 54.5t-43.5 92.5t-13.5 132v563h-135q-14 0 -22 12.5t-8 37.5
q0 13 2 22.5t6 16t9.5 9.5t12.5 3h135v222q0 6 2.5 11t9.5 8.5t18.5 5t28.5 1.5q18 0 29.5 -1.5t18 -5t9.5 -8.5t3 -11v-222h482v263q0 6 2.5 11t9.5 8t18.5 5t28.5 2q18 0 29.5 -2t18 -5t9.5 -8t3 -11v-263h580q22 0 30.5 -11.5t8.5 -31.5v-883q0 -6 -3 -11t-9.5 -8t-18 -5
t-29.5 -2q-17 0 -28.5 2t-18.5 5t-9.5 8t-2.5 11v825h-500v-547q0 -103 29.5 -157t106.5 -54q24 0 43.5 5t34.5 11t26 11t19 5q5 0 8.5 -2t6 -7.5t4 -14t1.5 -21.5q0 -21 -3 -34t-11 -20.5t-22 -14t-33 -11t-40 -7t-41 -2.5q-68 0 -115 18t-76.5 54.5t-43 92.5t-13.5 132
v563h-482zM1520 1133q6 -9 7.5 -16t-2 -11.5t-12.5 -7t-24 -2.5t-25 1t-17.5 4t-13.5 8.5t-13 15.5l-174 234q-7 9 -8 16.5t4 13t17 8.5t31 3t32 -1.5t22 -5t16 -10.5t14 -17z" />
    <glyph glyph-name="t_t_iacute.liga" unicode="tt&#xed;" horiz-adv-x="1709" 
d="M323 845v-547q0 -103 29.5 -157t107.5 -54q24 0 43.5 5t34.5 11t25.5 11t18.5 5q5 0 9 -2t6.5 -7.5t4 -14t1.5 -21.5q0 -21 -3.5 -34t-11 -20.5t-22 -14t-33.5 -11t-40 -7t-41 -2.5q-67 0 -114 18t-77 54.5t-43.5 92.5t-13.5 132v563h-135q-14 0 -22 12.5t-8 37.5
q0 13 2 22.5t6 16t9.5 9.5t12.5 3h135v222q0 6 2.5 11t9.5 8.5t18.5 5t28.5 1.5q18 0 29.5 -1.5t18 -5t9.5 -8.5t3 -11v-222h482v263q0 6 2.5 11t9.5 8t18.5 5t28.5 2q18 0 29.5 -2t18 -5t9.5 -8t3 -11v-263h580q22 0 30.5 -11.5t8.5 -31.5v-883q0 -6 -3 -11t-9.5 -8t-18 -5
t-29.5 -2q-17 0 -28.5 2t-18.5 5t-9.5 8t-2.5 11v825h-500v-547q0 -103 29.5 -157t106.5 -54q24 0 43.5 5t34.5 11t26 11t19 5q5 0 8.5 -2t6 -7.5t4 -14t1.5 -21.5q0 -21 -3 -34t-11 -20.5t-22 -14t-33 -11t-40 -7t-41 -2.5q-68 0 -115 18t-76.5 54.5t-43 92.5t-13.5 132
v563h-482zM1574 1366q6 10 13 17t16.5 10.5t23 5t32.5 1.5t31 -3t17 -8.5t3.5 -13t-8.5 -16.5l-174 -234q-7 -10 -12.5 -15.5t-12.5 -8.5t-17 -4t-25 -1t-24.5 2.5t-13 7t-2.5 11.5t7 16z" />
    <glyph glyph-name="t_t_icircumflex.liga" unicode="tt&#xee;" horiz-adv-x="1709" 
d="M323 845v-547q0 -103 29.5 -157t107.5 -54q24 0 43.5 5t34.5 11t25.5 11t18.5 5q5 0 9 -2t6.5 -7.5t4 -14t1.5 -21.5q0 -21 -3.5 -34t-11 -20.5t-22 -14t-33.5 -11t-40 -7t-41 -2.5q-67 0 -114 18t-77 54.5t-43.5 92.5t-13.5 132v563h-135q-14 0 -22 12.5t-8 37.5
q0 13 2 22.5t6 16t9.5 9.5t12.5 3h135v222q0 6 2.5 11t9.5 8.5t18.5 5t28.5 1.5q18 0 29.5 -1.5t18 -5t9.5 -8.5t3 -11v-222h482v263q0 6 2.5 11t9.5 8t18.5 5t28.5 2q18 0 29.5 -2t18 -5t9.5 -8t3 -11v-263h580q22 0 30.5 -11.5t8.5 -31.5v-883q0 -6 -3 -11t-9.5 -8t-18 -5
t-29.5 -2q-17 0 -28.5 2t-18.5 5t-9.5 8t-2.5 11v825h-500v-547q0 -103 29.5 -157t106.5 -54q24 0 43.5 5t34.5 11t26 11t19 5q5 0 8.5 -2t6 -7.5t4 -14t1.5 -21.5q0 -21 -3 -34t-11 -20.5t-22 -14t-33 -11t-40 -7t-41 -2.5q-68 0 -115 18t-76.5 54.5t-43 92.5t-13.5 132
v563h-482zM1329 1122q-6 -8 -11 -13t-12 -8t-16 -4t-22 -1q-20 0 -31 3t-14.5 9t0 15.5t13.5 22.5l169 232q5 7 10.5 11t13.5 6.5t19.5 3.5t28.5 1q15 0 25 -1t17.5 -4t12.5 -7t10 -10l169 -232q9 -13 12.5 -22.5t0 -15.5t-14.5 -9t-30 -3q-15 0 -24 1t-15.5 4t-11 8
t-10.5 13l-145 198zM1073 946z" />
    <glyph glyph-name="t_t_idieresis.liga" unicode="tt&#xef;" horiz-adv-x="1709" 
d="M323 845v-547q0 -103 29.5 -157t107.5 -54q24 0 43.5 5t34.5 11t25.5 11t18.5 5q5 0 9 -2t6.5 -7.5t4 -14t1.5 -21.5q0 -21 -3.5 -34t-11 -20.5t-22 -14t-33.5 -11t-40 -7t-41 -2.5q-67 0 -114 18t-77 54.5t-43.5 92.5t-13.5 132v563h-135q-14 0 -22 12.5t-8 37.5
q0 13 2 22.5t6 16t9.5 9.5t12.5 3h135v222q0 6 2.5 11t9.5 8.5t18.5 5t28.5 1.5q18 0 29.5 -1.5t18 -5t9.5 -8.5t3 -11v-222h482v263q0 6 2.5 11t9.5 8t18.5 5t28.5 2q18 0 29.5 -2t18 -5t9.5 -8t3 -11v-263h580q22 0 30.5 -11.5t8.5 -31.5v-883q0 -6 -3 -11t-9.5 -8t-18 -5
t-29.5 -2q-17 0 -28.5 2t-18.5 5t-9.5 8t-2.5 11v825h-500v-547q0 -103 29.5 -157t106.5 -54q24 0 43.5 5t34.5 11t26 11t19 5q5 0 8.5 -2t6 -7.5t4 -14t1.5 -21.5q0 -21 -3 -34t-11 -20.5t-22 -14t-33 -11t-40 -7t-41 -2.5q-68 0 -115 18t-76.5 54.5t-43 92.5t-13.5 132
v563h-482zM1404 1211q0 -45 -16.5 -61.5t-58.5 -16.5t-58 16t-16 61q0 46 16.5 62.5t57.5 16.5q43 0 59 -16t16 -62zM1701 1211q0 -45 -16.5 -61.5t-58.5 -16.5t-58 16t-16 61q0 46 16.5 62.5t57.5 16.5q43 0 59 -16t16 -62zM1107 946z" />
    <glyph glyph-name="t_t_imacron.liga" unicode="tt&#x12b;" horiz-adv-x="1709" 
d="M323 845v-547q0 -103 29.5 -157t107.5 -54q24 0 43.5 5t34.5 11t25.5 11t18.5 5q5 0 9 -2t6.5 -7.5t4 -14t1.5 -21.5q0 -21 -3.5 -34t-11 -20.5t-22 -14t-33.5 -11t-40 -7t-41 -2.5q-67 0 -114 18t-77 54.5t-43.5 92.5t-13.5 132v563h-135q-14 0 -22 12.5t-8 37.5
q0 13 2 22.5t6 16t9.5 9.5t12.5 3h135v222q0 6 2.5 11t9.5 8.5t18.5 5t28.5 1.5q18 0 29.5 -1.5t18 -5t9.5 -8.5t3 -11v-222h482v263q0 6 2.5 11t9.5 8t18.5 5t28.5 2q18 0 29.5 -2t18 -5t9.5 -8t3 -11v-263h580q22 0 30.5 -11.5t8.5 -31.5v-883q0 -6 -3 -11t-9.5 -8t-18 -5
t-29.5 -2q-17 0 -28.5 2t-18.5 5t-9.5 8t-2.5 11v825h-500v-547q0 -103 29.5 -157t106.5 -54q24 0 43.5 5t34.5 11t26 11t19 5q5 0 8.5 -2t6 -7.5t4 -14t1.5 -21.5q0 -21 -3 -34t-11 -20.5t-22 -14t-33 -11t-40 -7t-41 -2.5q-68 0 -115 18t-76.5 54.5t-43 92.5t-13.5 132
v563h-482zM1708 1277q6 0 11 -3t8 -9t5 -15.5t2 -22.5q0 -12 -2 -21t-5 -15.5t-8 -10t-11 -3.5h-462q-7 0 -12 3.5t-8.5 10t-5.5 15.5t-2 21q0 13 2 22.5t5.5 15.5t8.5 9t12 3h462zM1070 946z" />
    <glyph glyph-name="t_t_itilde.liga" unicode="tt&#x129;" horiz-adv-x="1709" 
d="M323 845v-547q0 -103 29.5 -157t107.5 -54q24 0 43.5 5t34.5 11t25.5 11t18.5 5q5 0 9 -2t6.5 -7.5t4 -14t1.5 -21.5q0 -21 -3.5 -34t-11 -20.5t-22 -14t-33.5 -11t-40 -7t-41 -2.5q-67 0 -114 18t-77 54.5t-43.5 92.5t-13.5 132v563h-135q-14 0 -22 12.5t-8 37.5
q0 13 2 22.5t6 16t9.5 9.5t12.5 3h135v222q0 6 2.5 11t9.5 8.5t18.5 5t28.5 1.5q18 0 29.5 -1.5t18 -5t9.5 -8.5t3 -11v-222h482v263q0 6 2.5 11t9.5 8t18.5 5t28.5 2q18 0 29.5 -2t18 -5t9.5 -8t3 -11v-263h580q22 0 30.5 -11.5t8.5 -31.5v-883q0 -6 -3 -11t-9.5 -8t-18 -5
t-29.5 -2q-17 0 -28.5 2t-18.5 5t-9.5 8t-2.5 11v825h-500v-547q0 -103 29.5 -157t106.5 -54q24 0 43.5 5t34.5 11t26 11t19 5q5 0 8.5 -2t6 -7.5t4 -14t1.5 -21.5q0 -21 -3 -34t-11 -20.5t-22 -14t-33 -11t-40 -7t-41 -2.5q-68 0 -115 18t-76.5 54.5t-43 92.5t-13.5 132
v563h-482zM1782 1302q0 -98 -49.5 -149.5t-130.5 -51.5q-36 0 -64.5 10.5t-52.5 26.5t-44.5 34.5t-40.5 34.5t-40 26.5t-43 10.5q-44 0 -61 -32.5t-17 -84.5q0 -7 -1.5 -12t-7 -8t-16 -4.5t-27.5 -1.5q-13 0 -22 2t-14 6.5t-7.5 13t-2.5 21.5q0 90 46.5 145t132.5 55
q54 0 92.5 -22.5t70 -49t60.5 -49t63 -22.5q39 0 58.5 29t19.5 88q0 14 8.5 20t37.5 6q32 0 42 -8t10 -34z" />
    <glyph glyph-name="t_t_ibreve.liga" unicode="tt&#x12d;" horiz-adv-x="1709" 
d="M323 845v-547q0 -103 29.5 -157t107.5 -54q24 0 43.5 5t34.5 11t25.5 11t18.5 5q5 0 9 -2t6.5 -7.5t4 -14t1.5 -21.5q0 -21 -3.5 -34t-11 -20.5t-22 -14t-33.5 -11t-40 -7t-41 -2.5q-67 0 -114 18t-77 54.5t-43.5 92.5t-13.5 132v563h-135q-14 0 -22 12.5t-8 37.5
q0 13 2 22.5t6 16t9.5 9.5t12.5 3h135v222q0 6 2.5 11t9.5 8.5t18.5 5t28.5 1.5q18 0 29.5 -1.5t18 -5t9.5 -8.5t3 -11v-222h482v263q0 6 2.5 11t9.5 8t18.5 5t28.5 2q18 0 29.5 -2t18 -5t9.5 -8t3 -11v-263h580q22 0 30.5 -11.5t8.5 -31.5v-883q0 -6 -3 -11t-9.5 -8t-18 -5
t-29.5 -2q-17 0 -28.5 2t-18.5 5t-9.5 8t-2.5 11v825h-500v-547q0 -103 29.5 -157t106.5 -54q24 0 43.5 5t34.5 11t26 11t19 5q5 0 8.5 -2t6 -7.5t4 -14t1.5 -21.5q0 -21 -3 -34t-11 -20.5t-22 -14t-33 -11t-40 -7t-41 -2.5q-68 0 -115 18t-76.5 54.5t-43 92.5t-13.5 132
v563h-482zM1628 1368q0 11 9 17.5t37 6.5q15 0 23.5 -1.5t13.5 -4.5t6.5 -7.5t1.5 -10.5q0 -68 -16 -118t-46.5 -83t-75.5 -49.5t-102 -16.5q-62 0 -107 18t-74.5 51.5t-43.5 82.5t-14 112q0 14 9.5 20.5t35.5 6.5q14 0 23 -1.5t14 -4.5t7 -7.5t2 -10.5q2 -39 11.5 -71
t27.5 -54.5t45 -34.5t64 -12q31 0 57 9.5t46 30t32 53t14 79.5zM1092 946z" />
    <glyph glyph-name="t_t_iogonek.liga" unicode="tt&#x12f;" horiz-adv-x="1709" 
d="M1619 -308q0 -11 -1.5 -18t-4.5 -12t-9 -7.5t-15 -4.5q-31 -8 -62 -11.5t-66 -3.5q-43 0 -77 9.5t-57 27.5t-35.5 44.5t-12.5 61.5q0 14 2 30t10 35t24 41.5t44 50.5l65 65v845h-500v-547q0 -103 29.5 -157t106.5 -54q24 0 43.5 5t34.5 11t26 11t19 5q5 0 8.5 -2t6 -7.5
t4 -14t1.5 -21.5q0 -21 -3 -34t-11 -20.5t-22 -14t-33 -11t-40 -7t-41 -2.5q-68 0 -115 18t-76.5 54.5t-43 92.5t-13.5 132v563h-482v-547q0 -103 29.5 -157t107.5 -54q24 0 43.5 5t34.5 11t25.5 11t18.5 5q5 0 9 -2t6.5 -7.5t4 -14t1.5 -21.5q0 -21 -3.5 -34t-11 -20.5
t-22 -14t-33.5 -11t-40 -7t-41 -2.5q-67 0 -114 18t-77 54.5t-43.5 92.5t-13.5 132v563h-135q-14 0 -22 12.5t-8 37.5q0 13 2 22.5t6 16t9.5 9.5t12.5 3h135v222q0 6 2.5 11t9.5 8.5t18.5 5t28.5 1.5q18 0 29.5 -1.5t18 -5t9.5 -8.5t3 -11v-222h482v263q0 6 2.5 11t9.5 8
t18.5 5t28.5 2t29 -2t18.5 -5t9.5 -8t3 -11v-263h580q22 0 30.5 -11.5t8.5 -31.5v-883q0 -12 -4.5 -29.5t-12.5 -25.5l-82 -82q-33 -33 -41.5 -53.5t-8.5 -37.5q0 -59 80 -59h120q6 0 11 -1.5t8 -6t4.5 -12.5t1.5 -21zM1561 1229q0 -23 -3.5 -38.5t-12.5 -25t-24 -13.5
t-38 -4t-38 4t-24 13.5t-12.5 25t-3.5 38.5t3.5 38.5t12.5 25.5t24 14t38 4t38 -4t24 -14t12.5 -25.5t3.5 -38.5z" />
    <glyph glyph-name="t_t_dotlessi.liga" unicode="tt&#x131;" horiz-adv-x="1709" 
d="M323 845v-547q0 -103 29.5 -157t107.5 -54q24 0 43.5 5t34.5 11t25.5 11t18.5 5q5 0 9 -2t6.5 -7.5t4 -14t1.5 -21.5q0 -21 -3.5 -34t-11 -20.5t-22 -14t-33.5 -11t-40 -7t-41 -2.5q-67 0 -114 18t-77 54.5t-43.5 92.5t-13.5 132v563h-135q-14 0 -22 12.5t-8 37.5
q0 13 2 22.5t6 16t9.5 9.5t12.5 3h135v222q0 6 2.5 11t9.5 8.5t18.5 5t28.5 1.5q18 0 29.5 -1.5t18 -5t9.5 -8.5t3 -11v-222h482v263q0 6 2.5 11t9.5 8t18.5 5t28.5 2q18 0 29.5 -2t18 -5t9.5 -8t3 -11v-263h580q22 0 30.5 -11.5t8.5 -31.5v-883q0 -6 -3 -11t-9.5 -8t-18 -5
t-29.5 -2q-17 0 -28.5 2t-18.5 5t-9.5 8t-2.5 11v825h-500v-547q0 -103 29.5 -157t106.5 -54q24 0 43.5 5t34.5 11t26 11t19 5q5 0 8.5 -2t6 -7.5t4 -14t1.5 -21.5q0 -21 -3 -34t-11 -20.5t-22 -14t-33 -11t-40 -7t-41 -2.5q-68 0 -115 18t-76.5 54.5t-43 92.5t-13.5 132
v563h-482z" />
    <glyph glyph-name="f_uni1EC9.liga" unicode="f&#x1ec9;" horiz-adv-x="1057" 
d="M890 20q0 -6 -3 -11t-9.5 -8t-18 -5t-28.5 -2q-18 0 -29.5 2t-18 5t-9.5 8t-3 11v825h-444v-825q0 -6 -3 -11t-9.5 -8t-18 -5t-29.5 -2q-17 0 -28.5 2t-18.5 5t-9.5 8t-2.5 11v825h-136q-14 0 -21.5 12.5t-7.5 37.5q0 13 2 22.5t5.5 16t9 9.5t12.5 3h136v107
q0 94 17.5 160t52 107.5t85.5 60.5t117 19q38 0 70 -6.5t48.5 -14t22 -13t9 -13.5t5 -18.5t1.5 -23.5q0 -23 -4.5 -34t-15.5 -11q-8 0 -20 5t-29.5 11t-40 11t-50.5 5q-83 0 -116 -58.5t-33 -186.5v-107h526q20 0 28.5 -11.5t8.5 -29.5v-885zM840 1080q-8 0 -16.5 7
t-15.5 16.5t-11.5 18.5t-4.5 14q0 8 8 13q19 10 37 21.5t32 25t22.5 30.5t8.5 40q0 38 -25 58t-74 20q-30 0 -51.5 -5t-37 -10.5t-25.5 -10.5t-15 -5q-8 0 -11 7t-3 25q0 23 2.5 33t7.5 15q7 7 44 21t104 14q95 0 141 -41.5t46 -109.5q0 -49 -22.5 -86t-51 -61.5t-55 -37
t-34.5 -12.5z" />
    <glyph glyph-name="f_uni1ECB.liga" unicode="f&#x1ecb;" horiz-adv-x="1057" 
d="M908 1229q0 -23 -3.5 -38.5t-12 -25t-23.5 -13.5t-38 -4t-38 4t-24 13.5t-12.5 25t-3.5 38.5t3.5 38.5t12.5 25.5t24 14t38 4t38 -4t23.5 -14t12 -25.5t3.5 -38.5zM890 20q0 -6 -3 -11t-9.5 -8t-18 -5t-28.5 -2q-18 0 -29.5 2t-18 5t-9.5 8t-3 11v825h-444v-825
q0 -6 -3 -11t-9.5 -8t-18 -5t-29.5 -2q-17 0 -28.5 2t-18.5 5t-9.5 8t-2.5 11v825h-136q-14 0 -21.5 12.5t-7.5 37.5q0 13 2 22.5t5.5 16t9 9.5t12.5 3h136v107q0 94 17.5 160t51.5 107.5t83.5 60.5t112.5 19q22 0 43 -2t38.5 -5.5t30 -8t17 -9t7.5 -9.5t4.5 -11.5
t2.5 -15.5t1 -21q0 -22 -4.5 -33t-15.5 -11q-8 0 -17 3.5t-23.5 8t-35.5 8.5t-52 4q-78 0 -110 -58.5t-32 -186.5v-107h526q20 0 28.5 -11.5t8.5 -29.5v-885zM750 -249q0 44 17.5 63t60.5 19q44 0 61 -19t17 -63q0 -43 -17 -62t-61 -19q-43 0 -60.5 19t-17.5 62z" />
    <glyph glyph-name="f_f_uni1EC9.liga" unicode="ff&#x1ec9;" horiz-adv-x="1620" 
d="M1441.5 1q-12.5 -7 -47.5 -7t-47 7t-12 19v825h-445v-825q0 -12 -12 -19t-47 -7t-47.5 7t-12.5 19v825h-444v-825q0 -12 -12.5 -19t-47.5 -7t-47 7t-12 19v825h-136q-29 0 -29 50q0 51 29 51h136v96q0 94 17.5 160t52 107.5t85.5 60.5t117 19q44 0 76 -8t50 -16
q17 -8 23.5 -23.5t6.5 -41.5q0 -45 -20 -45q-8 0 -20 5t-29.5 11t-40 11t-50.5 5q-83 0 -116 -58.5t-33 -186.5v-96h444v126q0 87 17.5 149t50.5 101.5t80 58.5t106 19q29 0 57 -4.5t45 -10.5q14 -5 20 -19t6 -40q0 -45 -20 -45q-8 0 -17 2.5t-21.5 6t-30 6t-42.5 2.5
q-70 0 -101 -55.5t-31 -170.5v-126h526q20 0 29 -11.5t9 -29.5v-885q0 -12 -12.5 -19zM1405 1080q-8 0 -16.5 7t-15.5 16.5t-11.5 18.5t-4.5 14q0 8 8 13q19 10 37 21.5t32 25t22.5 30.5t8.5 40q0 38 -25 58t-74 20q-30 0 -51.5 -5t-37 -10.5t-25.5 -10.5t-15 -5q-8 0 -11 7
t-3 25q0 23 2.5 33t7.5 15q7 7 44 21t104 14q95 0 141 -41.5t46 -109.5q0 -49 -22.5 -86t-51 -61.5t-55 -37t-34.5 -12.5z" />
    <glyph glyph-name="f_f_uni1ECB.liga" unicode="ff&#x1ecb;" horiz-adv-x="1620" 
d="M1472 1229q0 -23 -3.5 -38.5t-12.5 -25t-24 -13.5t-38 -4t-38 4t-24 13.5t-12.5 25t-3.5 38.5t3.5 38.5t12.5 25.5t24 14t38 4t38 -4t24 -14t12.5 -25.5t3.5 -38.5zM1454 20q0 -6 -3 -11t-9.5 -8t-18 -5t-29.5 -2q-17 0 -28.5 2t-18.5 5t-9.5 8t-2.5 11v825h-445v-825
q0 -6 -3 -11t-9.5 -8t-18 -5t-28.5 -2q-18 0 -29.5 2t-18 5t-9.5 8t-3 11v825h-444v-825q0 -6 -3 -11t-9.5 -8t-18.5 -5t-29 -2t-28.5 2t-18.5 5t-9.5 8t-2.5 11v825h-136q-14 0 -21.5 12.5t-7.5 37.5q0 13 2 22.5t5.5 16t9 9.5t12.5 3h136v96q0 94 17.5 160t52 107.5
t85.5 60.5t117 19q44 0 76 -8t45.5 -14t19 -11.5t9 -13.5t5 -18.5t1.5 -23.5q0 -23 -4.5 -34t-15.5 -11q-8 0 -20 5t-29.5 11t-40 11t-50.5 5q-83 0 -116 -58.5t-33 -186.5v-96h444v107q0 94 18 160t51.5 107.5t83 60.5t112.5 19q22 0 43.5 -2t38.5 -5.5t29.5 -8t17 -9
t7.5 -9.5t5 -11.5t3 -15.5t1 -21q0 -22 -4.5 -33t-15.5 -11q-8 0 -17.5 3.5t-23.5 8t-35 8.5t-52 4q-78 0 -110.5 -58.5t-32.5 -186.5v-107h526q20 0 29 -11.5t9 -29.5v-885zM1317 -249q0 44 17.5 63t60.5 19q44 0 61 -19t17 -63q0 -43 -17 -62t-61 -19q-43 0 -60.5 19
t-17.5 62z" />
    <glyph glyph-name="f_uni01D0.liga" unicode="f&#x1d0;" horiz-adv-x="1075" 
d="M908 20q0 -12 -12 -19t-47 -7t-47.5 7t-12.5 19v825h-462v-825q0 -12 -12.5 -19t-47.5 -7t-47 7t-12 19v825h-136q-29 0 -29 50q0 51 29 51h136v126q0 87 17.5 149t50.5 101.5t80 58.5t106 19q29 0 56.5 -3.5t45.5 -11.5q17 -7 21.5 -22t4.5 -38q0 -44 -21 -44
q-8 0 -18 3t-24.5 6.5t-29 5.5t-39.5 2q-70 0 -100.5 -55.5t-30.5 -170.5v-126h544q20 0 28.5 -11.5t8.5 -29.5v-885zM867 1176l141 198q11 16 21.5 21t39.5 5q39 0 44.5 -12t-12.5 -38l-165 -232q-10 -12 -23 -17t-42 -5q-17 0 -28.5 1t-19 3.5t-12.5 6.5t-10 11l-165 232
q-20 26 -15 38t44 12q26 0 38 -5t23 -21z" />
    <glyph glyph-name="f_uni0209.liga" unicode="f&#x209;" horiz-adv-x="1075" 
d="M908 20q0 -12 -12 -19t-47 -7t-47.5 7t-12.5 19v825h-462v-825q0 -12 -12.5 -19t-47.5 -7t-47 7t-12 19v825h-136q-29 0 -29 50q0 51 29 51h136v126q0 87 17.5 149t50.5 101.5t80 58.5t106 19q29 0 56.5 -3.5t45.5 -11.5q17 -7 21.5 -21.5t4.5 -38.5q0 -44 -21 -44
q-8 0 -18 3t-24.5 6.5t-29 5.5t-39.5 2q-70 0 -100.5 -55.5t-30.5 -170.5v-126h544q20 0 28.5 -11.5t8.5 -29.5v-885zM862 1133q7 -18 0.5 -27.5t-37.5 -9.5q-15 0 -25 1t-16 4t-10.5 8.5t-9.5 15.5l-124 234q-10 18 2.5 29.5t50.5 11.5q19 0 31 -1.5t19.5 -5t12 -10.5
t8.5 -17zM1062 1133q7 -18 0.5 -27.5t-37.5 -9.5q-15 0 -25 1t-16 4t-10.5 8.5t-9.5 15.5l-124 234q-10 18 2.5 29.5t50.5 11.5q19 0 31 -1.5t19.5 -5t12 -10.5t8.5 -17z" />
    <glyph glyph-name="f_uni020B.liga" unicode="f&#x20b;" horiz-adv-x="1075" 
d="M908 20q0 -12 -12 -19t-47 -7t-47 7t-12 19v825h-463v-825q0 -12 -12.5 -19t-47.5 -7t-47 7t-12 19v825h-136q-29 0 -29 50q0 51 29 51h136v126q0 87 17.5 149t50.5 101.5t80 58.5t106 19q29 0 57 -4t45 -11q14 -5 20 -19t6 -40q0 -45 -21 -45q-8 0 -16.5 2.5t-21.5 6
t-30.5 6t-42.5 2.5q-70 0 -100.5 -55.5t-30.5 -170.5v-126h544q20 0 28.5 -11.5t8.5 -29.5v-885zM992 1126q-5 93 -40.5 133t-96.5 40q-37 0 -62.5 -12t-41.5 -34.5t-24 -54.5t-10 -72q0 -13 -9 -18.5t-37 -5.5q-26 0 -35 7t-9 21q0 63 12.5 111.5t39.5 82.5t70.5 51.5
t105.5 17.5q115 0 171.5 -65.5t56.5 -201.5q0 -13 -8 -18.5t-37 -5.5q-28 0 -37 6.5t-9 17.5z" />
    <glyph glyph-name="f_uni1E2D.liga" unicode="f&#x1e2d;" horiz-adv-x="1057" 
d="M908 1229q0 -23 -3.5 -38.5t-12 -25t-23.5 -13.5t-38 -4t-38 4t-24 13.5t-12.5 25t-3.5 38.5t3.5 38.5t12.5 25.5t24 14t38 4t38 -4t23.5 -14t12 -25.5t3.5 -38.5zM890 20q0 -6 -3 -11t-9.5 -8t-18 -5t-28.5 -2q-18 0 -29.5 2t-18 5t-9.5 8t-3 11v825h-444v-825
q0 -6 -3 -11t-9.5 -8t-18 -5t-29.5 -2q-17 0 -28.5 2t-18.5 5t-9.5 8t-2.5 11v825h-136q-14 0 -21.5 12.5t-7.5 37.5q0 13 2 22.5t5.5 16t9 9.5t12.5 3h136v107q0 94 17.5 160t51.5 107.5t83.5 60.5t112.5 19q22 0 43 -2t38.5 -5.5t30 -8t17 -9t7.5 -9.5t4.5 -11.5
t2.5 -15.5t1 -21q0 -22 -4.5 -33t-15.5 -11q-8 0 -17 3.5t-23.5 8t-35.5 8.5t-52 4q-78 0 -110 -58.5t-32 -186.5v-107h526q20 0 28.5 -11.5t8.5 -29.5v-885zM1152 -199q0 -98 -49.5 -149.5t-130.5 -51.5q-36 0 -64.5 10.5t-52.5 26.5t-44.5 34.5t-40.5 34.5t-40 26.5
t-43 10.5q-44 0 -61 -32.5t-17 -84.5q0 -14 -9 -20t-43 -6q-26 0 -36 8.5t-10 34.5q0 90 46.5 145t132.5 55q54 0 92.5 -22.5t70 -49t60.5 -49t63 -22.5q78 0 78 117q0 14 8.5 20t37.5 6q32 0 42 -8t10 -34z" />
    <glyph glyph-name="f_uni1E2F.liga" unicode="f&#x1e2f;" horiz-adv-x="1075" 
d="M909 20q0 -6 -3 -11t-9.5 -8t-18 -5t-28.5 -2q-18 0 -29.5 2t-18.5 5t-9.5 8t-2.5 11v825h-463v-825q0 -6 -3 -11t-9.5 -8t-18.5 -5t-29 -2t-28.5 2t-18.5 5t-9.5 8t-2.5 11v825h-136q-14 0 -21.5 12.5t-7.5 37.5q0 13 2 22.5t5.5 16t9 9.5t12.5 3h136v126q0 87 17.5 149
t50.5 101.5t80 58.5t106 19q15 0 29.5 -1t27.5 -3t24.5 -5t19.5 -6t13 -7.5t8 -11.5t4.5 -17t1.5 -23q0 -23 -5 -34t-16 -11q-8 0 -16.5 2.5t-21.5 6t-30.5 6t-42.5 2.5q-70 0 -100.5 -55.5t-30.5 -170.5v-126h545q20 0 28.5 -11.5t8.5 -29.5v-885zM649 1229q0 22 3.5 37
t12 24t23 13t35.5 4q22 0 36 -4t22.5 -13t12 -24t3.5 -37q0 -21 -3.5 -36t-12 -24.5t-22.5 -13.5t-36 -4q-21 0 -35.5 4t-23 13.5t-12 24.5t-3.5 36zM927 1229q0 22 3.5 37t12 24t23 13t35.5 4q22 0 36 -4t22.5 -13t12 -24t3.5 -37q0 -21 -3.5 -36t-12 -24.5t-22.5 -13.5
t-36 -4q-21 0 -35.5 4t-23 13.5t-12 24.5t-3.5 36zM981 1629q6 10 13 17t16.5 10.5t23 5t32.5 1.5t31 -3t17 -8.5t3.5 -13t-8.5 -16.5l-174 -234q-7 -10 -12.5 -15.5t-12.5 -8.5t-17 -4t-25 -1t-24.5 2.5t-13 7t-2.5 11.5t7 16z" />
    <glyph glyph-name="f_uni0268.liga" unicode="f&#x268;" horiz-adv-x="1077" 
d="M890 20q0 -12 -12 -19t-47 -7t-47.5 7t-12.5 19v446h-208q-14 0 -22 12.5t-8 37.5t8 37.5t22 12.5h208v279h-444v-825q0 -12 -12.5 -19t-47.5 -7t-47 7t-12 19v825h-136q-29 0 -29 50q0 51 29 51h136v107q0 94 17.5 160t51.5 107.5t83.5 60.5t112.5 19q44 0 81.5 -7.5
t48.5 -18.5q7 -7 10.5 -19.5t3.5 -36.5q0 -44 -20 -44q-8 0 -17 3.5t-23.5 8t-35.5 8.5t-52 4q-78 0 -110 -58.5t-32 -186.5v-107h526q20 0 28.5 -11.5t8.5 -29.5v-339h207q30 0 30 -50t-30 -50h-207v-446zM908 1229q0 -46 -15.5 -63.5t-61.5 -17.5q-23 0 -38 4t-24 13.5
t-12.5 25t-3.5 38.5t3.5 38.5t12.5 25.5t24 14t38 4q46 0 61.5 -18t15.5 -64z" />
    <glyph glyph-name="f_f_uni01D0.liga" unicode="ff&#x1d0;" horiz-adv-x="1638" 
d="M1472 20q0 -12 -12.5 -19t-47.5 -7t-47 7t-12 19v825h-463v-825q0 -12 -12 -19t-47 -7t-47.5 7t-12.5 19v825h-444v-825q0 -12 -12.5 -19t-47.5 -7t-47 7t-12 19v825h-136q-29 0 -29 50q0 51 29 51h136v96q0 94 17.5 160t52 107.5t85.5 60.5t117 19q44 0 76 -8t50 -16
q17 -8 23.5 -23.5t6.5 -41.5q0 -45 -20 -45q-8 0 -20 5t-29.5 11t-40 11t-50.5 5q-83 0 -116 -58.5t-33 -186.5v-96h444v126q0 87 17.5 149t50.5 101.5t80 58.5t106 19q29 0 59.5 -4.5t48.5 -12.5q17 -7 23 -23t6 -42q0 -44 -20 -44q-8 0 -18 3.5t-24.5 8t-33.5 8.5t-44 4
q-70 0 -101 -55.5t-31 -170.5v-126h544q20 0 29 -11.5t9 -29.5v-885zM1431 1176l141 198q11 16 21.5 21t39.5 5q39 0 44.5 -12t-13.5 -38l-165 -232q-9 -12 -22 -17t-42 -5q-18 0 -29.5 1t-19 3.5t-12.5 6.5t-10 11l-165 232q-20 26 -14.5 38t44.5 12q26 0 38 -5t23 -21z
" />
    <glyph glyph-name="f_f_uni0209.liga" unicode="ff&#x209;" horiz-adv-x="1638" 
d="M1472 20q0 -12 -12.5 -19t-47.5 -7t-47 7t-12 19v825h-463v-825q0 -12 -12 -19t-47 -7t-47.5 7t-12.5 19v825h-444v-825q0 -12 -12.5 -19t-47.5 -7t-47 7t-12 19v825h-136q-29 0 -29 50q0 51 29 51h136v96q0 94 17.5 160t52 107.5t85.5 60.5t117 19q44 0 76 -8t50 -16
q17 -8 23.5 -23.5t6.5 -41.5q0 -45 -20 -45q-8 0 -20 5t-29.5 11t-40 11t-50.5 5q-83 0 -116 -58.5t-33 -186.5v-96h444v126q0 87 17.5 149t50.5 101.5t80 58.5t106 19q29 0 59.5 -4.5t48.5 -12.5q17 -7 23 -23t6 -42q0 -44 -20 -44q-8 0 -18 3.5t-24.5 8t-33.5 8.5t-44 4
q-70 0 -101 -55.5t-31 -170.5v-126h544q20 0 29 -11.5t9 -29.5v-885zM1446 1133q7 -18 0.5 -27.5t-37.5 -9.5q-15 0 -25 1t-16 4t-10.5 8.5t-9.5 15.5l-124 234q-10 18 2.5 29.5t50.5 11.5q19 0 31 -1.5t19.5 -5t12 -10.5t8.5 -17zM1646 1133q7 -18 0.5 -27.5t-37.5 -9.5
q-15 0 -25 1t-16 4t-10.5 8.5t-9.5 15.5l-124 234q-10 18 2.5 29.5t50.5 11.5q19 0 31 -1.5t19.5 -5t12 -10.5t8.5 -17z" />
    <glyph glyph-name="f_f_uni020B.liga" unicode="ff&#x20b;" horiz-adv-x="1639" 
d="M1472 20q0 -12 -12 -19t-47 -7t-47.5 7t-12.5 19v825h-463v-825q0 -12 -12 -19t-47 -7t-47.5 7t-12.5 19v825h-444v-825q0 -12 -12.5 -19t-47.5 -7t-47 7t-12 19v825h-136q-29 0 -29 50q0 51 29 51h136v96q0 94 17.5 160t52 107.5t85.5 60.5t117 19q44 0 76 -8t50 -16
q17 -8 23.5 -23.5t6.5 -41.5q0 -45 -20 -45q-8 0 -20 5t-29.5 11t-40 11t-50.5 5q-83 0 -116 -58.5t-33 -186.5v-96h444v126q0 87 17.5 149t50.5 101.5t80 58.5t106 19q29 0 57 -4t45 -11q14 -5 20 -19t6 -40q0 -45 -20 -45q-8 0 -17 2.5t-21.5 6t-30 6t-42.5 2.5
q-70 0 -101 -55.5t-31 -170.5v-126h545q20 0 28.5 -11.5t8.5 -29.5v-885zM1556 1128q-5 93 -41 133t-97 40q-37 0 -62 -12t-41 -34.5t-24 -54.5t-10 -72q0 -13 -9 -18.5t-37 -5.5q-26 0 -35.5 7t-9.5 21q0 63 12.5 111.5t39.5 82.5t70.5 51.5t105.5 17.5q115 0 171.5 -65.5
t56.5 -201.5q0 -13 -7.5 -18.5t-36.5 -5.5q-28 0 -37 6.5t-9 17.5z" />
    <glyph glyph-name="f_f_uni1E2D.liga" unicode="ff&#x1e2d;" horiz-adv-x="1620" 
d="M1472 1229q0 -23 -3.5 -38.5t-12.5 -25t-24 -13.5t-38 -4t-38 4t-24 13.5t-12.5 25t-3.5 38.5t3.5 38.5t12.5 25.5t24 14t38 4t38 -4t24 -14t12.5 -25.5t3.5 -38.5zM1454 20q0 -6 -3 -11t-9.5 -8t-18 -5t-29.5 -2q-17 0 -28.5 2t-18.5 5t-9.5 8t-2.5 11v825h-445v-825
q0 -6 -3 -11t-9.5 -8t-18 -5t-28.5 -2q-18 0 -29.5 2t-18 5t-9.5 8t-3 11v825h-444v-825q0 -6 -3 -11t-9.5 -8t-18.5 -5t-29 -2t-28.5 2t-18.5 5t-9.5 8t-2.5 11v825h-136q-14 0 -21.5 12.5t-7.5 37.5q0 13 2 22.5t5.5 16t9 9.5t12.5 3h136v96q0 94 17.5 160t52 107.5
t85.5 60.5t117 19q44 0 76 -8t45.5 -14t19 -11.5t9 -13.5t5 -18.5t1.5 -23.5q0 -23 -4.5 -34t-15.5 -11q-8 0 -20 5t-29.5 11t-40 11t-50.5 5q-83 0 -116 -58.5t-33 -186.5v-96h444v107q0 94 18 160t51.5 107.5t83 60.5t112.5 19q22 0 43.5 -2t38.5 -5.5t29.5 -8t17 -9
t7.5 -9.5t5 -11.5t3 -15.5t1 -21q0 -22 -4.5 -33t-15.5 -11q-8 0 -17.5 3.5t-23.5 8t-35 8.5t-52 4q-78 0 -110.5 -58.5t-32.5 -186.5v-107h526q20 0 29 -11.5t9 -29.5v-885zM1716 -199q0 -98 -49.5 -149.5t-130.5 -51.5q-36 0 -64.5 10.5t-52.5 26.5t-44.5 34.5t-40.5 34.5
t-40 26.5t-43 10.5q-44 0 -61 -32.5t-17 -84.5q0 -14 -9 -20t-43 -6q-26 0 -36 8.5t-10 34.5q0 90 46.5 145t132.5 55q54 0 92.5 -22.5t70 -49t60.5 -49t63 -22.5q78 0 78 117q0 14 8.5 20t37.5 6q32 0 42 -8t10 -34z" />
    <glyph glyph-name="f_f_uni1E2F.liga" unicode="ff&#x1e2f;" horiz-adv-x="1639" 
d="M1472 20q0 -6 -3 -11t-9.5 -8t-18 -5t-28.5 -2q-18 0 -29.5 2t-18 5t-9.5 8t-3 11v825h-463v-825q0 -6 -3 -11t-9.5 -8t-18 -5t-28.5 -2q-18 0 -29.5 2t-18 5t-9.5 8t-3 11v825h-444v-825q0 -6 -3 -11t-9.5 -8t-18 -5t-29.5 -2q-17 0 -28.5 2t-18.5 5t-9.5 8t-2.5 11v825
h-136q-14 0 -21.5 12.5t-7.5 37.5q0 13 2 22.5t5.5 16t9 9.5t12.5 3h136v96q0 94 17.5 160t52 107.5t85.5 60.5t117 19q44 0 76 -8t45.5 -14t19 -11.5t9 -13.5t5 -18.5t1.5 -23.5q0 -23 -4.5 -34t-15.5 -11q-8 0 -20 5t-29.5 11t-40 11t-50.5 5q-83 0 -116 -58.5t-33 -186.5
v-96h444v126q0 87 17.5 149t50.5 101.5t80 58.5t106 19q29 0 57 -4t40 -9t17 -9.5t8 -11.5t4.5 -17t1.5 -23q0 -23 -4.5 -34t-15.5 -11q-8 0 -17 2.5t-21.5 6t-30 6t-42.5 2.5q-70 0 -101 -55.5t-31 -170.5v-126h545q20 0 28.5 -11.5t8.5 -29.5v-885zM1213 1229q0 22 3.5 37
t12 24t22.5 13t36 4q21 0 35.5 -4t23 -13t12 -24t3.5 -37q0 -21 -3.5 -36t-12 -24.5t-23 -13.5t-35.5 -4q-22 0 -36 4t-22.5 13.5t-12 24.5t-3.5 36zM1491 1229q0 22 3.5 37t12 24t22.5 13t36 4q21 0 35.5 -4t23 -13t12 -24t3.5 -37q0 -21 -3.5 -36t-12 -24.5t-23 -13.5
t-35.5 -4q-22 0 -36 4t-22.5 13.5t-12 24.5t-3.5 36zM1537 1629q6 10 13 17t16.5 10.5t23 5t32.5 1.5t31 -3t17 -8.5t3.5 -13t-8.5 -16.5l-174 -234q-7 -10 -12.5 -15.5t-12.5 -8.5t-17 -4t-25 -1t-24.5 2.5t-13 7t-2.5 11.5t7 16z" />
    <glyph glyph-name="f_f_uni0268.liga" unicode="ff&#x268;" horiz-adv-x="1642" 
d="M1454 20q0 -12 -12.5 -19t-47.5 -7t-47 7t-12 19v446h-207q-14 0 -22 12.5t-8 37.5t8 37.5t22 12.5h207v279h-445v-825q0 -12 -12 -19t-47 -7t-47.5 7t-12.5 19v825h-444v-825q0 -12 -12.5 -19t-47.5 -7t-47 7t-12 19v825h-136q-29 0 -29 50q0 51 29 51h136v96
q0 94 17.5 160t52 107.5t85.5 60.5t117 19q44 0 76 -8t50 -16q17 -8 23.5 -23.5t6.5 -41.5q0 -45 -20 -45q-8 0 -20 5t-29.5 11t-40 11t-50.5 5q-83 0 -116 -58.5t-33 -186.5v-96h444v107q0 94 18 160t51.5 107.5t83 60.5t112.5 19q45 0 82 -7.5t48 -18.5q7 -7 11 -19.5
t4 -36.5q0 -44 -20 -44q-8 0 -17.5 3.5t-23.5 8t-35 8.5t-52 4q-78 0 -110.5 -58.5t-32.5 -186.5v-107h526q20 0 29 -11.5t9 -29.5v-339h208q30 0 30 -50t-30 -50h-208v-446zM1472 1229q0 -46 -16 -63.5t-62 -17.5t-62 17.5t-16 63.5t16 64t62 18t62 -18t16 -64z" />
    <glyph glyph-name="t_uni01D0.liga" unicode="t&#x1d0;" horiz-adv-x="1109" 
d="M903 946q23 0 31 -11.5t8 -31.5v-883q0 -6 -3 -11t-9.5 -8t-18 -5t-28.5 -2q-18 0 -29.5 2t-18 5t-9.5 8t-3 11v825h-500v-547q0 -103 29.5 -157t107.5 -54q24 0 43.5 5t34.5 11t25.5 11t18.5 5q5 0 9 -2t6.5 -7.5t4 -14t1.5 -21.5q0 -21 -3.5 -34t-11 -20.5t-22 -14
t-33.5 -11t-40 -7t-41 -2.5q-67 0 -114 18t-77 54.5t-43.5 92.5t-13.5 132v563h-135q-14 0 -22 12.5t-8 37.5q0 13 2 22.5t6 16t9.5 9.5t12.5 3h135v222q0 6 2.5 11t9.5 8.5t18.5 5t28.5 1.5q18 0 29.5 -1.5t18 -5t9.5 -8.5t3 -11v-222h580zM1025 1374q6 7 11 12t12 8
t16 4.5t22 1.5q19 0 30.5 -3t15 -9t0 -15.5t-13.5 -22.5l-169 -232q-5 -7 -10.5 -11.5t-13.5 -6.5t-19.5 -3t-28.5 -1q-15 0 -25 1t-17.5 3.5t-12.5 7t-10 10.5l-169 232q-9 12 -12.5 21.5t0 16t14 9.5t30.5 3q15 0 24 -1.5t15.5 -4.5t11 -8t10.5 -12l144 -199z" />
    <glyph glyph-name="t_uni0209.liga" unicode="t&#x209;" horiz-adv-x="1109" 
d="M903 946q23 0 31 -11.5t8 -31.5v-883q0 -6 -3 -11t-9.5 -8t-18 -5t-28.5 -2q-18 0 -29.5 2t-18 5t-9.5 8t-3 11v825h-500v-547q0 -103 29.5 -157t107.5 -54q24 0 43.5 5t34.5 11t25.5 11t18.5 5q5 0 9 -2t6.5 -7.5t4 -14t1.5 -21.5q0 -21 -3.5 -34t-11 -20.5t-22 -14
t-33.5 -11t-40 -7t-41 -2.5q-67 0 -114 18t-77 54.5t-43.5 92.5t-13.5 132v563h-135q-14 0 -22 12.5t-8 37.5q0 13 2 22.5t6 16t9.5 9.5t12.5 3h135v222q0 6 2.5 11t9.5 8.5t18.5 5t28.5 1.5q18 0 29.5 -1.5t18 -5t9.5 -8.5t3 -11v-222h580zM733 1337q-17 20 -6 31t56 11
q38 0 54.5 -5.5t24.5 -16.5l182 -267q14 -24 -33 -24q-28 0 -42.5 4.5t-22.5 14.5zM414 1337q-18 21 -6.5 31.5t56.5 10.5q40 0 55.5 -5.5t23.5 -16.5l182 -267q8 -11 -2 -17.5t-31 -6.5q-26 0 -40.5 4t-24.5 15z" />
    <glyph glyph-name="t_uni020B.liga" unicode="t&#x20b;" horiz-adv-x="1109" 
d="M903 946q23 0 31 -11.5t8 -31.5v-883q0 -6 -3 -11t-9.5 -8t-18 -5t-28.5 -2q-18 0 -29.5 2t-18 5t-9.5 8t-3 11v825h-500v-547q0 -103 29.5 -157t107.5 -54q24 0 43.5 5t34.5 11t25.5 11t18.5 5q5 0 9 -2t6.5 -7.5t4 -14t1.5 -21.5q0 -21 -3.5 -34t-11 -20.5t-22 -14
t-33.5 -11t-40 -7t-41 -2.5q-67 0 -114 18t-77 54.5t-43.5 92.5t-13.5 132v563h-135q-14 0 -22 12.5t-8 37.5q0 13 2 22.5t6 16t9.5 9.5t12.5 3h135v222q0 6 2.5 11t9.5 8.5t18.5 5t28.5 1.5q18 0 29.5 -1.5t18 -5t9.5 -8.5t3 -11v-222h580zM1027 1125q-2 46 -14 79
t-32 53.5t-46 30t-57 9.5q-74 0 -108.5 -46.5t-39.5 -125.5q0 -13 -9 -18.5t-37 -5.5q-26 0 -35.5 6.5t-9.5 20.5q0 125 57.5 194.5t181.5 69.5q115 0 177.5 -65.5t62.5 -201.5q0 -13 -8 -18.5t-37 -5.5q-28 0 -37 6.5t-9 17.5z" />
    <glyph glyph-name="t_uni1E2D.liga" unicode="t&#x1e2d;" horiz-adv-x="1109" 
d="M903 946q23 0 31 -11.5t8 -31.5v-883q0 -6 -3 -11t-9.5 -8t-18 -5t-28.5 -2q-18 0 -29.5 2t-18 5t-9.5 8t-3 11v825h-500v-547q0 -103 29.5 -157t107.5 -54q24 0 43.5 5t34.5 11t25.5 11t18.5 5q5 0 9 -2t6.5 -7.5t4 -14t1.5 -21.5q0 -21 -3.5 -34t-11 -20.5t-22 -14
t-33.5 -11t-40 -7t-41 -2.5q-67 0 -114 18t-77 54.5t-43.5 92.5t-13.5 132v563h-135q-14 0 -22 12.5t-8 37.5q0 13 2 22.5t6 16t9.5 9.5t12.5 3h135v222q0 6 2.5 11t9.5 8.5t18.5 5t28.5 1.5q18 0 29.5 -1.5t18 -5t9.5 -8.5t3 -11v-222h580zM963 1230q0 -48 -17 -65t-62 -17
q-44 0 -60.5 16.5t-16.5 64.5t17 65t62 17q44 0 60.5 -16.5t16.5 -64.5zM659 946zM1204 -199q0 -98 -49.5 -149.5t-130.5 -51.5q-36 0 -64.5 10.5t-52.5 26.5t-44.5 34.5t-40.5 34.5t-40 26.5t-43 10.5q-44 0 -61 -32.5t-17 -84.5q0 -14 -9 -20t-43 -6q-26 0 -36 8.5
t-10 34.5q0 90 46.5 145t132.5 55q54 0 92.5 -22.5t70 -49t60.5 -49t63 -22.5q78 0 78 117q0 14 8.5 20t37.5 6q32 0 42 -8t10 -34z" />
    <glyph glyph-name="t_uni1E2F.liga" unicode="t&#x1e2f;" horiz-adv-x="1109" 
d="M903 946q23 0 31 -11.5t8 -31.5v-883q0 -6 -3 -11t-9.5 -8t-18 -5t-28.5 -2q-18 0 -29.5 2t-18 5t-9.5 8t-3 11v825h-500v-547q0 -103 29.5 -157t107.5 -54q24 0 43.5 5t34.5 11t25.5 11t18.5 5q5 0 9 -2t6.5 -7.5t4 -14t1.5 -21.5q0 -21 -3.5 -34t-11 -20.5t-22 -14
t-33.5 -11t-40 -7t-41 -2.5q-67 0 -114 18t-77 54.5t-43.5 92.5t-13.5 132v563h-135q-14 0 -22 12.5t-8 37.5q0 13 2 22.5t6 16t9.5 9.5t12.5 3h135v222q0 6 2.5 11t9.5 8.5t18.5 5t28.5 1.5q18 0 29.5 -1.5t18 -5t9.5 -8.5t3 -11v-222h580zM622 1210q0 46 15.5 62.5
t58.5 16.5q44 0 59.5 -16t15.5 -62q0 -45 -16 -61.5t-59 -16.5t-58.5 15.5t-15.5 61.5zM956 1210q0 46 15.5 62.5t58.5 16.5q44 0 59.5 -16t15.5 -62q0 -45 -16 -61.5t-59 -16.5t-58.5 15.5t-15.5 61.5zM983 1628q13 21 30 27.5t55 6.5t47.5 -11.5t-4.5 -29.5l-174 -234
q-7 -10 -12.5 -15.5t-12.5 -8.5t-17 -4t-25 -1q-31 0 -37.5 9.5t4.5 27.5z" />
    <glyph glyph-name="t_uni0268.liga" unicode="t&#x268;" horiz-adv-x="1154" 
d="M903 946q23 0 31 -11.5t8 -31.5v-337h170q30 0 30 -50t-30 -50h-170v-446q0 -12 -12 -19t-47 -7t-47.5 7t-12.5 19v446h-170q-14 0 -22 12.5t-8 37.5t8 37.5t22 12.5h170v279h-500v-547q0 -103 29.5 -157t107.5 -54q24 0 43.5 5t34.5 11t25.5 11t18.5 5q10 0 15.5 -9.5
t5.5 -35.5q0 -40 -15 -55q-7 -7 -21.5 -13.5t-33.5 -11t-40 -7t-41 -2.5q-67 0 -114 18t-77 54.5t-43.5 92.5t-13.5 132v563h-135q-30 0 -30 50q0 51 30 51h135v222q0 13 12 19.5t47 6.5t47.5 -6.5t12.5 -19.5v-222h580zM960 1229q0 -46 -16 -63.5t-62 -17.5t-62 17.5
t-16 63.5t16 64t62 18t62 -18t16 -64z" />
    <glyph glyph-name="t_t_uni01D0.liga" unicode="tt&#x1d0;" horiz-adv-x="1709" 
d="M323 845v-547q0 -103 29.5 -157t107.5 -54q24 0 43.5 5t34.5 11t25.5 11t18.5 5q5 0 9 -2t6.5 -7.5t4 -14t1.5 -21.5q0 -21 -3.5 -34t-11 -20.5t-22 -14t-33.5 -11t-40 -7t-41 -2.5q-67 0 -114 18t-77 54.5t-43.5 92.5t-13.5 132v563h-135q-14 0 -22 12.5t-8 37.5
q0 13 2 22.5t6 16t9.5 9.5t12.5 3h135v222q0 6 2.5 11t9.5 8.5t18.5 5t28.5 1.5q18 0 29.5 -1.5t18 -5t9.5 -8.5t3 -11v-222h482v263q0 6 2.5 11t9.5 8t18.5 5t28.5 2q18 0 29.5 -2t18 -5t9.5 -8t3 -11v-263h580q22 0 30.5 -11.5t8.5 -31.5v-883q0 -6 -3 -11t-9.5 -8t-18 -5
t-29.5 -2q-17 0 -28.5 2t-18.5 5t-9.5 8t-2.5 11v825h-500v-547q0 -103 29.5 -157t106.5 -54q24 0 43.5 5t34.5 11t26 11t19 5q5 0 8.5 -2t6 -7.5t4 -14t1.5 -21.5q0 -21 -3 -34t-11 -20.5t-22 -14t-33 -11t-40 -7t-41 -2.5q-68 0 -115 18t-76.5 54.5t-43 92.5t-13.5 132
v563h-482zM1627 1374q6 7 11 12t12 8t16 4.5t22 1.5q19 0 30.5 -3t15 -9t0 -15.5t-13.5 -22.5l-169 -232q-5 -7 -10.5 -11.5t-13.5 -6.5t-19.5 -3t-28.5 -1q-15 0 -25 1t-17.5 3.5t-12.5 7t-10 10.5l-169 232q-9 12 -12.5 21.5t0 16t14 9.5t30.5 3q15 0 24 -1.5t15.5 -4.5
t11 -8t10.5 -12l144 -199z" />
    <glyph glyph-name="t_t_uni0209.liga" unicode="tt&#x209;" horiz-adv-x="1709" 
d="M323 845v-547q0 -103 29.5 -157t107.5 -54q24 0 43.5 5t34.5 11t25.5 11t18.5 5q5 0 9 -2t6.5 -7.5t4 -14t1.5 -21.5q0 -21 -3.5 -34t-11 -20.5t-22 -14t-33.5 -11t-40 -7t-41 -2.5q-67 0 -114 18t-77 54.5t-43.5 92.5t-13.5 132v563h-135q-14 0 -22 12.5t-8 37.5
q0 13 2 22.5t6 16t9.5 9.5t12.5 3h135v222q0 6 2.5 11t9.5 8.5t18.5 5t28.5 1.5q18 0 29.5 -1.5t18 -5t9.5 -8.5t3 -11v-222h482v263q0 6 2.5 11t9.5 8t18.5 5t28.5 2q18 0 29.5 -2t18 -5t9.5 -8t3 -11v-263h580q22 0 30.5 -11.5t8.5 -31.5v-883q0 -6 -3 -11t-9.5 -8t-18 -5
t-29.5 -2q-17 0 -28.5 2t-18.5 5t-9.5 8t-2.5 11v825h-500v-547q0 -103 29.5 -157t106.5 -54q24 0 43.5 5t34.5 11t26 11t19 5q5 0 8.5 -2t6 -7.5t4 -14t1.5 -21.5q0 -21 -3 -34t-11 -20.5t-22 -14t-33 -11t-40 -7t-41 -2.5q-68 0 -115 18t-76.5 54.5t-43 92.5t-13.5 132
v563h-482zM1371 1337q-17 20 -6 31t56 11q38 0 54.5 -5.5t24.5 -16.5l182 -267q14 -24 -33 -24q-28 0 -42.5 4.5t-22.5 14.5zM1052 1337q-18 21 -6.5 31.5t56.5 10.5q40 0 55.5 -5.5t23.5 -16.5l182 -267q8 -11 -2 -17.5t-31 -6.5q-26 0 -40.5 4t-24.5 15z" />
    <glyph glyph-name="t_t_uni020B.liga" unicode="tt&#x20b;" horiz-adv-x="1709" 
d="M323 845v-547q0 -103 29.5 -157t107.5 -54q24 0 43.5 5t34.5 11t25.5 11t18.5 5q5 0 9 -2t6.5 -7.5t4 -14t1.5 -21.5q0 -21 -3.5 -34t-11 -20.5t-22 -14t-33.5 -11t-40 -7t-41 -2.5q-67 0 -114 18t-77 54.5t-43.5 92.5t-13.5 132v563h-135q-14 0 -22 12.5t-8 37.5
q0 13 2 22.5t6 16t9.5 9.5t12.5 3h135v222q0 6 2.5 11t9.5 8.5t18.5 5t28.5 1.5q18 0 29.5 -1.5t18 -5t9.5 -8.5t3 -11v-222h482v263q0 6 2.5 11t9.5 8t18.5 5t28.5 2q18 0 29.5 -2t18 -5t9.5 -8t3 -11v-263h580q22 0 30.5 -11.5t8.5 -31.5v-883q0 -6 -3 -11t-9.5 -8t-18 -5
t-29.5 -2q-17 0 -28.5 2t-18.5 5t-9.5 8t-2.5 11v825h-500v-547q0 -103 29.5 -157t106.5 -54q24 0 43.5 5t34.5 11t26 11t19 5q5 0 8.5 -2t6 -7.5t4 -14t1.5 -21.5q0 -21 -3 -34t-11 -20.5t-22 -14t-33 -11t-40 -7t-41 -2.5q-68 0 -115 18t-76.5 54.5t-43 92.5t-13.5 132
v563h-482zM1628 1125q-2 46 -14 79t-32 53.5t-46 30t-57 9.5q-74 0 -108.5 -46.5t-39.5 -125.5q0 -13 -9 -18.5t-37 -5.5q-26 0 -35.5 6.5t-9.5 20.5q0 125 57.5 194.5t181.5 69.5q115 0 177.5 -65.5t62.5 -201.5q0 -13 -8 -18.5t-37 -5.5q-28 0 -37 6.5t-9 17.5z" />
    <glyph glyph-name="t_t_uni1E2D.liga" unicode="tt&#x1e2d;" horiz-adv-x="1709" 
d="M323 845v-547q0 -103 29.5 -157t107.5 -54q24 0 43.5 5t34.5 11t25.5 11t18.5 5q5 0 9 -2t6.5 -7.5t4 -14t1.5 -21.5q0 -21 -3.5 -34t-11 -20.5t-22 -14t-33.5 -11t-40 -7t-41 -2.5q-67 0 -114 18t-77 54.5t-43.5 92.5t-13.5 132v563h-135q-14 0 -22 12.5t-8 37.5
q0 13 2 22.5t6 16t9.5 9.5t12.5 3h135v222q0 6 2.5 11t9.5 8.5t18.5 5t28.5 1.5q18 0 29.5 -1.5t18 -5t9.5 -8.5t3 -11v-222h482v263q0 6 2.5 11t9.5 8t18.5 5t28.5 2q18 0 29.5 -2t18 -5t9.5 -8t3 -11v-263h580q22 0 30.5 -11.5t8.5 -31.5v-883q0 -6 -3 -11t-9.5 -8t-18 -5
t-29.5 -2q-17 0 -28.5 2t-18.5 5t-9.5 8t-2.5 11v825h-500v-547q0 -103 29.5 -157t106.5 -54q24 0 43.5 5t34.5 11t26 11t19 5q5 0 8.5 -2t6 -7.5t4 -14t1.5 -21.5q0 -21 -3 -34t-11 -20.5t-22 -14t-33 -11t-40 -7t-41 -2.5q-68 0 -115 18t-76.5 54.5t-43 92.5t-13.5 132
v563h-482zM1561 1230q0 -48 -17 -65t-62 -17q-44 0 -60.5 16.5t-16.5 64.5t17 65t62 17q44 0 60.5 -16.5t16.5 -64.5zM1257 946zM1805 -199q0 -98 -49.5 -149.5t-130.5 -51.5q-36 0 -64.5 10.5t-52.5 26.5t-44.5 34.5t-40.5 34.5t-40 26.5t-43 10.5q-44 0 -61 -32.5
t-17 -84.5q0 -14 -9 -20t-43 -6q-26 0 -36 8.5t-10 34.5q0 90 46.5 145t132.5 55q54 0 92.5 -22.5t70 -49t60.5 -49t63 -22.5q78 0 78 117q0 14 8.5 20t37.5 6q32 0 42 -8t10 -34z" />
    <glyph glyph-name="t_t_uni1E2F.liga" unicode="tt&#x1e2f;" horiz-adv-x="1709" 
d="M323 845v-547q0 -103 29.5 -157t107.5 -54q24 0 43.5 5t34.5 11t25.5 11t18.5 5q5 0 9 -2t6.5 -7.5t4 -14t1.5 -21.5q0 -21 -3.5 -34t-11 -20.5t-22 -14t-33.5 -11t-40 -7t-41 -2.5q-67 0 -114 18t-77 54.5t-43.5 92.5t-13.5 132v563h-135q-14 0 -22 12.5t-8 37.5
q0 13 2 22.5t6 16t9.5 9.5t12.5 3h135v222q0 6 2.5 11t9.5 8.5t18.5 5t28.5 1.5q18 0 29.5 -1.5t18 -5t9.5 -8.5t3 -11v-222h482v263q0 6 2.5 11t9.5 8t18.5 5t28.5 2q18 0 29.5 -2t18 -5t9.5 -8t3 -11v-263h580q22 0 30.5 -11.5t8.5 -31.5v-883q0 -6 -3 -11t-9.5 -8t-18 -5
t-29.5 -2q-17 0 -28.5 2t-18.5 5t-9.5 8t-2.5 11v825h-500v-547q0 -103 29.5 -157t106.5 -54q24 0 43.5 5t34.5 11t26 11t19 5q5 0 8.5 -2t6 -7.5t4 -14t1.5 -21.5q0 -21 -3 -34t-11 -20.5t-22 -14t-33 -11t-40 -7t-41 -2.5q-68 0 -115 18t-76.5 54.5t-43 92.5t-13.5 132
v563h-482zM1228 1210q0 46 15.5 62.5t58.5 16.5q44 0 59.5 -16t15.5 -62q0 -45 -16 -61.5t-59 -16.5t-58.5 15.5t-15.5 61.5zM1562 1210q0 46 15.5 62.5t58.5 16.5q44 0 59.5 -16t15.5 -62q0 -45 -16 -61.5t-59 -16.5t-58.5 15.5t-15.5 61.5zM1589 1628q13 21 30 27.5
t55 6.5t47.5 -11.5t-4.5 -29.5l-174 -234q-7 -10 -12.5 -15.5t-12.5 -8.5t-17 -4t-25 -1q-31 0 -37.5 9.5t4.5 27.5z" />
    <glyph glyph-name="t_t_uni0268.liga" unicode="tt&#x268;" horiz-adv-x="1755" 
d="M323 845v-547q0 -103 29.5 -157t107.5 -54q24 0 43.5 5t34.5 11t25.5 11t18.5 5q10 0 15.5 -9.5t5.5 -35.5q0 -40 -15 -55q-7 -7 -21.5 -13.5t-33.5 -11t-40 -7t-41 -2.5q-67 0 -114 18t-77 54.5t-43.5 92.5t-13.5 132v563h-135q-30 0 -30 50q0 51 30 51h135v222
q0 13 12 19.5t47 6.5t47.5 -6.5t12.5 -19.5v-222h482v263q0 12 12 19t47 7t47.5 -7t12.5 -19v-263h580q22 0 30.5 -11.5t8.5 -31.5v-337h170q30 0 30 -50t-30 -50h-170v-446q0 -12 -12.5 -19t-47.5 -7t-47 7t-12 19v446h-170q-14 0 -22 12.5t-8 37.5t8 37.5t22 12.5h170v279
h-500v-547q0 -103 29.5 -157t106.5 -54q24 0 43.5 5t34.5 11t26 11t19 5q10 0 15 -9.5t5 -35.5q0 -21 -3 -34t-12 -21q-7 -7 -21 -13.5t-33 -11t-40 -7t-41 -2.5q-68 0 -115 18t-76.5 54.5t-43 92.5t-13.5 132v563h-482zM1561 1229q0 -46 -16 -63.5t-62 -17.5t-62 17.5
t-16 63.5t16 64t62 18t62 -18t16 -64z" />
    <glyph glyph-name="f_uni0237.liga" unicode="f&#x237;" horiz-adv-x="1057" 
d="M890 -63q0 -68 -11 -123.5t-39.5 -95t-78 -61.5t-125.5 -22q-45 0 -80 9t-46 20q-6 6 -8.5 15t-2.5 30q0 52 24 52q9 0 17.5 -3.5t21 -7.5t31 -7.5t47.5 -3.5q33 0 58 11t41 36.5t24 66.5t8 101v891h-444v-825q0 -12 -12.5 -19t-47.5 -7t-47 7t-12 19v825h-136
q-29 0 -29 50q0 51 29 51h136v126q0 87 17.5 149t50.5 101.5t80 58.5t106 19q29 0 57 -4t45 -11q14 -5 20 -19t6 -40q0 -45 -21 -45q-8 0 -16.5 2.5t-21.5 6t-30.5 6t-42.5 2.5q-70 0 -100.5 -55.5t-30.5 -170.5v-126h526q20 0 28.5 -11.5t8.5 -29.5v-968z" />
    <glyph glyph-name="f_f_uni0237.liga" unicode="ff&#x237;" horiz-adv-x="1620" 
d="M771 1072q0 87 17.5 149t50.5 101.5t80 58.5t106 19q29 0 57 -4.5t45 -10.5q14 -5 20 -19t6 -40q0 -45 -20 -45q-8 0 -17 2.5t-21.5 6t-30 6t-42.5 2.5q-70 0 -101 -55.5t-31 -170.5v-126h526q20 0 29 -11.5t9 -29.5v-968q0 -68 -11 -123.5t-39.5 -95t-78 -61.5
t-125.5 -22q-45 0 -80.5 9t-46.5 20q-5 6 -8 15t-3 30q0 26 6.5 39t17.5 13q9 0 17.5 -3.5t21 -7.5t31 -7.5t47.5 -3.5q33 0 58 11t41.5 36.5t24.5 66.5t8 101v891h-445v-825q0 -12 -12 -19t-47 -7t-47.5 7t-12.5 19v825h-444v-825q0 -12 -12.5 -19t-47.5 -7t-47 7t-12 19
v825h-136q-29 0 -29 50q0 51 29 51h136v96q0 94 17.5 160t52 107.5t85.5 60.5t117 19q44 0 76 -8t50 -16q17 -8 23.5 -23.5t6.5 -41.5q0 -45 -20 -45q-8 0 -20 5t-29.5 11t-40 11t-50.5 5q-83 0 -116 -58.5t-33 -186.5v-96h444v126z" />
    <glyph glyph-name=".notdef" horiz-adv-x="1038" 
d="M973 1294v-1294h-927v1294h927zM897 70v1154h-778v-1154h778zM760 860q0 -60 -18 -107t-50.5 -79t-76.5 -49.5t-96 -18.5l-5 -170q0 -8 -11 -11.5t-32 -3.5q-10 0 -17 1t-12 3t-7.5 4.5t-2.5 6.5l-4 200q0 23 13 33.5t34 10.5h20q49 0 81.5 13.5t52.5 36.5t28.5 55
t8.5 68q0 80 -44 126t-142 46q-39 0 -70.5 -8.5t-55.5 -19t-40 -19t-23 -8.5q-3 0 -6.5 1.5t-6 6t-4 12t-1.5 19.5t2.5 21.5t10.5 17.5q7 7 27 16.5t47.5 18.5t61 15.5t66.5 6.5q69 0 120 -19t84.5 -52t50.5 -78t17 -96zM536 267q0 -18 -3 -30t-10 -19.5t-18.5 -10.5
t-28.5 -3q-18 0 -30 3t-19.5 10.5t-10.5 19.5t-3 30t3 30t10.5 19.5t19.5 10.5t30 3q17 0 28.5 -3t18.5 -10.5t10 -19.5t3 -30z" />
    <glyph glyph-name="glyph1" 
 />
    <glyph glyph-name="glyph1" 
 />
    <glyph glyph-name="uni000D" unicode="&#xd;" 
 />
    <glyph glyph-name="space" unicode=" " horiz-adv-x="463" 
 />
    <glyph glyph-name="space" unicode="&#xa0;" horiz-adv-x="463" 
 />
    <glyph glyph-name="exclam" unicode="!" horiz-adv-x="667" 
d="M425 345q0 -6 -2.5 -11t-9 -8.5t-17 -5t-25.5 -1.5t-25.5 1.5t-17 5t-9 8.5t-2.5 11l-13 979q0 12 2.5 20.5t10 14t20.5 7.5t34 2q20 0 33 -2.5t20.5 -8t10.5 -13.5t3 -20zM456 89q0 -28 -3.5 -46.5t-13.5 -29.5t-26.5 -15.5t-41.5 -4.5q-26 0 -42.5 4.5t-26 15.5
t-13 29.5t-3.5 46.5t3.5 47t13 29.5t26 15t42.5 4.5q25 0 41.5 -4.5t26.5 -15t13.5 -29.5t3.5 -47z" />
    <glyph glyph-name="quotedbl" unicode="&#x22;" horiz-adv-x="779" 
d="M608 897q0 -6 -2.5 -11t-8.5 -8t-15 -5t-22 -2q-14 0 -23 2t-14.5 5t-8 8t-2.5 11l-23 473q0 6 4.5 11t13 8.5t22 5t31.5 1.5q19 0 32.5 -1.5t22 -5t12 -8.5t3.5 -11zM267 897q0 -6 -2.5 -11t-8.5 -8t-15 -5t-22 -2q-14 0 -23 2t-14.5 5t-8 8t-2.5 11l-23 473q0 6 4.5 11
t13 8.5t22 5t31.5 1.5q39 0 54.5 -6.5t15.5 -19.5z" />
    <glyph glyph-name="numbersign" unicode="#" horiz-adv-x="1020" 
d="M979 886q0 -13 -2.5 -22.5t-6.5 -16t-10 -9.5t-13 -3h-139l-44 -357h126q14 0 22.5 -13t8.5 -39q0 -13 -2.5 -22.5t-6.5 -16t-9.5 -9.5t-12.5 -3h-141l-44 -358q-1 -6 -3 -10.5t-8 -7.5t-17 -4t-30 -1t-31.5 1t-19.5 4t-10 7.5t-2 10.5l45 358h-308l-45 -358
q-1 -6 -3 -10.5t-7.5 -7.5t-16.5 -4t-30 -1t-31.5 1t-19.5 4t-10 7.5t-2 10.5l44 358h-128q-14 0 -22.5 12.5t-8.5 38.5q0 13 2.5 22.5t6.5 16t9.5 10t12.5 3.5h143l45 357h-132q-14 0 -23 13t-9 38q0 26 9 39t23 13h145l44 338q0 6 3 10.5t10 7.5t19 4.5t31 1.5t30.5 -1.5
t17.5 -4.5t8 -7.5t2 -10.5l-45 -338h308l42 338q1 6 4 10.5t9.5 7.5t18.5 4.5t31 1.5t31 -1.5t18 -4.5t8 -7.5t1 -10.5l-43 -338h126q14 0 23 -13t9 -39zM380 835l-44 -357h307l45 357h-308z" />
    <glyph glyph-name="dollar" unicode="$" horiz-adv-x="1038" 
d="M921 352q0 -77 -30 -140.5t-86 -109.5t-138 -72.5t-185 -29.5l-22 -219q-1 -6 -3 -11t-7.5 -8t-16 -5t-27.5 -2q-18 0 -28.5 2t-16.5 5t-8 8t-1 11l24 223q-51 6 -93.5 15.5t-75 20.5t-54.5 22.5t-32 21.5t-13.5 24.5t-3.5 37.5q0 15 1.5 25.5t5.5 18t10 11t14 3.5
q13 0 36.5 -14.5t63 -32t97.5 -32t140 -14.5q157 0 239 62.5t82 171.5q0 66 -28 110t-74.5 75t-105.5 52.5t-120.5 43t-120 47.5t-105 65.5t-74.5 97t-28 141.5q0 63 22 118.5t67.5 98t116 69t167.5 31.5l20 202q1 6 3 11t7.5 8.5t15.5 5t28 1.5q17 0 28 -1.5t17 -5
t7.5 -8.5t1.5 -11l-23 -206q31 -3 64 -10.5t62.5 -17t53 -21.5t32 -20t11.5 -14t5 -13t3 -16t1 -19q0 -13 -1 -23.5t-4 -17.5t-7.5 -11t-11.5 -4q-10 0 -33.5 13t-60 28t-85 28t-108.5 13q-75 0 -128 -15t-86 -41.5t-48 -63.5t-15 -81q0 -67 28.5 -111.5t75 -75t106 -51.5
t121.5 -42.5t121.5 -47t106 -65t75 -97t28.5 -142.5z" />
    <glyph glyph-name="percent" unicode="%" horiz-adv-x="1448" 
d="M614 973q0 -77 -17 -139.5t-50.5 -106.5t-84.5 -68.5t-119 -24.5q-67 0 -116.5 21.5t-82 64t-48.5 105.5t-16 146q0 72 16 133.5t49 106.5t84 70.5t120 25.5q74 0 125 -26.5t82 -72t44.5 -106.5t13.5 -129zM505 968q0 58 -9 104t-28 77.5t-49.5 48t-73.5 16.5
q-40 0 -69.5 -15.5t-48.5 -46t-28 -74.5t-9 -101q0 -72 10.5 -120.5t31 -77t50.5 -40.5t69 -12q46 0 75.5 17.5t47 49.5t24.5 76t7 98zM1368 326q0 -77 -17 -139.5t-50.5 -106.5t-84.5 -68.5t-119 -24.5q-67 0 -116.5 21.5t-82 64t-48.5 105.5t-16 146q0 72 16 133.5
t49 106.5t84 70.5t120 25.5q74 0 125 -26.5t82 -72t44.5 -106.5t13.5 -129zM1259 321q0 58 -9 104t-28 77.5t-49.5 48t-73.5 16.5q-40 0 -69.5 -15.5t-48.5 -46t-28 -74.5t-9 -101q0 -72 10.5 -120.5t31 -77t50.5 -40.5t69 -12q46 0 75.5 17.5t47 49.5t24.5 76t7 98z
M326 -17q-4 -6 -9.5 -9.5t-13.5 -6t-18.5 -3.5t-25.5 -1q-16 0 -26 3.5t-14 10t-3 15t8 19.5l888 1303q4 6 9.5 10t13.5 6.5t18.5 3.5t25.5 1q16 0 26 -3.5t14.5 -10t3 -15.5t-8.5 -19z" />
    <glyph glyph-name="ampersand" unicode="&#x26;" horiz-adv-x="1372" 
d="M122 330q0 54 14 104t46 97.5t85 93t130 92.5q-42 58 -71.5 104t-48 85t-26.5 74t-8 71q0 58 19 112t61.5 96t111 67.5t166.5 25.5q78 0 136.5 -19t97.5 -53t59 -81.5t20 -104.5q0 -58 -18.5 -106.5t-60.5 -94.5t-109.5 -93t-165.5 -101q37 -46 81 -96t92 -100.5t98 -100
t100 -94.5q24 31 43 70t33 82.5t21.5 89.5t7.5 93v39q0 9 2.5 15t8.5 10t17.5 5.5t29.5 1.5q15 0 26.5 -0.5t19 -3.5t11.5 -10t4 -20v-20q0 -60 -10.5 -117.5t-29 -111.5t-45.5 -103t-60 -91q51 -41 88.5 -68.5t64.5 -44.5t44 -24t28 -7q10 0 18.5 1t14 -1.5t8.5 -11
t3 -27.5t-0.5 -31t-2.5 -18t-7 -10t-18.5 -7t-39.5 -3q-19 0 -43 7.5t-56.5 26.5t-76 51t-101.5 82q-40 -36 -84.5 -66.5t-95.5 -53t-108.5 -35t-124.5 -12.5q-62 0 -115.5 11t-98 32t-79 51.5t-58 68.5t-36 84t-12.5 98zM369 1064q0 -30 8 -61t24.5 -65t41.5 -73.5
t59 -87.5q81 46 136 84t88.5 74t48.5 71.5t15 76.5q0 32 -11.5 61.5t-36.5 52.5t-64 37t-94 14q-59 0 -99.5 -15.5t-66.5 -41.5t-37.5 -59t-11.5 -68zM250 349q0 -57 18.5 -104t55 -81.5t91 -53.5t125.5 -19q48 0 91.5 10t83.5 27.5t75 41.5t65 52q-56 49 -110.5 101.5
t-105.5 106t-98 106.5t-87 104q-59 -37 -98 -72.5t-62.5 -71.5t-33.5 -72t-10 -75zM0 1294z" />
    <glyph glyph-name="quotesingle" unicode="'" horiz-adv-x="438" 
d="M267 897q0 -6 -2.5 -11t-8.5 -8t-15 -5t-22 -2q-14 0 -23 2t-14.5 5t-8 8t-2.5 11l-23 473q0 6 4.5 11t13 8.5t22 5t31.5 1.5q19 0 32.5 -1.5t22 -5t12 -8.5t3.5 -11z" />
    <glyph glyph-name="parenleft" unicode="(" horiz-adv-x="612" 
d="M473 1383q-101 -204 -149 -418t-48 -425q0 -213 49.5 -426t145.5 -420q4 -9 4.5 -15.5t-4 -11t-14.5 -6.5t-27 -2q-12 0 -21.5 1t-17 3t-12.5 5.5t-8 8.5q-54 100 -95.5 204t-70 212t-43 219t-14.5 224t16 224t45.5 219.5t71 213.5t92.5 207q1 3 4 5.5t9 5t16.5 4
t27.5 1.5q15 0 24.5 -2.5t15 -6.5t6 -10.5t-2.5 -13.5z" />
    <glyph glyph-name="parenright" unicode=")" horiz-adv-x="612" 
d="M463 536q0 -113 -14.5 -224t-43 -219t-69.5 -212t-95 -204q-3 -5 -8 -8.5t-12.5 -5.5t-17 -3t-21.5 -1q-18 0 -28 2t-14.5 6.5t-3.5 11t5 15.5q97 205 146 419t49 427q0 211 -48.5 425t-148.5 418q-3 7 -2.5 13.5t6 10.5t15 6.5t24.5 2.5q16 0 26.5 -1.5t17 -4t9 -5
t4.5 -5.5q102 -203 163 -420.5t61 -443.5z" />
    <glyph glyph-name="asterisk" unicode="*" horiz-adv-x="1020" 
d="M831 933q11 -6 10.5 -20t-20.5 -47q-20 -34 -31.5 -41t-21.5 0l-221 152l22 -267q2 -13 -11 -19.5t-52 -6.5t-52 6.5t-11 19.5l22 267l-220 -152q-10 -7 -22 0t-32 41q-20 33 -20 47t11 20l243 115l-243 114q-11 6 -11 20t20 47q20 34 32 41t22 0l220 -152l-22 267
q-2 13 11 19.5t52 6.5t52 -6.5t11 -19.5l-22 -267l221 152q10 7 21.5 0t31.5 -41q20 -33 20.5 -47t-10.5 -20l-243 -114z" />
    <glyph glyph-name="plus" unicode="+" horiz-adv-x="1020" 
d="M940 577q0 -15 -2.5 -25.5t-7.5 -18t-11.5 -11t-13.5 -3.5h-338v-378q0 -6 -3 -10.5t-10 -8t-17.5 -5.5t-26.5 -2q-15 0 -26 2t-18 5.5t-10.5 8t-3.5 10.5v378h-337q-8 0 -14 3.5t-11 11t-7.5 18t-2.5 25.5q0 13 2.5 23.5t7.5 17.5t11 10.5t14 3.5h337v378q0 7 3.5 12.5
t10.5 9.5t18 6t26 2q16 0 26.5 -2t17.5 -6t10 -9.5t3 -12.5v-378h338q7 0 13.5 -3.5t11.5 -10.5t7.5 -17.5t2.5 -23.5z" />
    <glyph glyph-name="comma" unicode="," horiz-adv-x="501" 
d="M343 121q0 -27 -2.5 -49t-8.5 -42t-16 -40t-25 -42l-139 -213q-4 -6 -9.5 -10.5t-13 -7.5t-17.5 -4.5t-25 -1.5q-11 0 -19 1t-11.5 4t-4 7.5t3.5 11.5l139 274v112q0 22 4 35.5t13 20.5t23 9.5t34 2.5q19 0 33 -2.5t23 -9.5t13.5 -20.5t4.5 -35.5z" />
    <glyph glyph-name="hyphen" unicode="-" horiz-adv-x="627" 
d="M552 506q0 -29 -8 -39.5t-21 -10.5h-419q-13 0 -21.5 11t-8.5 39t8.5 39t21.5 11h419q6 0 11.5 -2.5t9.5 -8.5t6 -15.5t2 -23.5z" />
    <glyph glyph-name="hyphen" unicode="&#x2010;" horiz-adv-x="627" 
d="M552 506q0 -29 -8 -39.5t-21 -10.5h-419q-13 0 -21.5 11t-8.5 39t8.5 39t21.5 11h419q6 0 11.5 -2.5t9.5 -8.5t6 -15.5t2 -23.5z" />
    <glyph glyph-name="hyphen" unicode="&#xad;" horiz-adv-x="627" 
d="M552 506q0 -29 -8 -39.5t-21 -10.5h-419q-13 0 -21.5 11t-8.5 39t8.5 39t21.5 11h419q6 0 11.5 -2.5t9.5 -8.5t6 -15.5t2 -23.5z" />
    <glyph glyph-name="period" unicode="." horiz-adv-x="501" 
d="M336 90q0 -59 -19 -78t-68 -19q-47 0 -65.5 18.5t-18.5 76.5q0 59 19 78t68 19q47 0 65.5 -18.5t18.5 -76.5z" />
    <glyph glyph-name="slash" unicode="/" horiz-adv-x="742" 
d="M122 -232q-4 -12 -9.5 -19t-13 -11t-18 -5.5t-25.5 -1.5t-26.5 3t-18.5 8.5t-8.5 14t3.5 19.5l610 1648q4 12 9 19t12.5 11t18.5 5.5t26 1.5t26 -3t17.5 -8.5t8.5 -14t-2 -19.5z" />
    <glyph glyph-name="zero" unicode="0" horiz-adv-x="1038" 
d="M959 649q0 -146 -23 -268t-76.5 -210.5t-140 -138t-213.5 -49.5q-117 0 -198.5 42.5t-132 126.5t-73 207.5t-22.5 285.5q0 145 23 267.5t76 211t139.5 138t213.5 49.5q117 0 198.5 -42.5t132.5 -126.5t73.5 -207.5t22.5 -285.5zM831 638q0 99 -7.5 179.5t-23.5 143.5
t-40.5 109.5t-59 77t-78.5 45t-99 14.5q-99 0 -160.5 -46.5t-96 -123.5t-46.5 -176t-12 -205q0 -148 17 -255.5t54 -177t95 -103t141 -33.5q66 0 115 21t84 59t58 90t36 113t18 129t5 139z" />
    <glyph glyph-name="one" unicode="1" horiz-adv-x="1038" 
d="M918 50q0 -14 -3 -23.5t-8 -15.5t-11 -8.5t-12 -2.5h-656q-6 0 -11.5 2.5t-10.5 8.5t-8 15.5t-3 23.5q0 12 2.5 22t7 16.5t10.5 10t13 3.5h287v1062l-274 -167q-16 -10 -26 -11.5t-16 3.5t-8 16.5t-2 27.5q0 13 1 22.5t4 16.5t7.5 12t11.5 10l310 198q3 2 8 4t12 3.5
t15 2t19 0.5q17 0 29 -2t19 -5t10 -8t3 -11v-1174h246q7 0 13.5 -3.5t11 -10t7 -16.5t2.5 -22z" />
    <glyph glyph-name="two" unicode="2" horiz-adv-x="1038" 
d="M907 56q0 -12 -2.5 -22.5t-7 -18t-11.5 -11.5t-16 -4h-699q-9 0 -17 3t-14 9.5t-9 17.5t-3 26q0 13 1 23t4 18t8 16t13 17l265 280q99 104 157.5 186t89.5 148t40.5 120t9.5 102t-15.5 91.5t-45.5 76t-74.5 52t-102.5 19.5q-63 0 -113 -17.5t-87.5 -39t-62.5 -39
t-37 -17.5q-6 0 -11 3t-8.5 9.5t-5 16.5t-1.5 23q0 12 1 20t3 14.5t5.5 12.5t15 16t39 27t69.5 34.5t93 30t106 12.5q91 0 158.5 -27t112.5 -73t67 -106.5t22 -127.5q0 -62 -10.5 -123.5t-45 -134t-100 -160.5t-174.5 -203l-236 -247h592q8 0 15 -3.5t12 -10.5t7.5 -17
t2.5 -22z" />
    <glyph glyph-name="three" unicode="3" horiz-adv-x="1038" 
d="M894 365q0 -84 -27.5 -154t-81.5 -121t-135 -79t-187 -28q-64 0 -120 11t-99.5 26t-72.5 31t-36 22t-10.5 12t-6 13.5t-4 19t-1.5 27.5q0 30 6.5 41t17.5 11q9 0 36.5 -17t71 -37t101 -37t127.5 -17q72 0 126 19t91 53.5t55.5 82t18.5 103.5q0 60 -24 108.5t-69 83.5
t-110 54t-146 19h-128q-6 0 -12.5 3t-12 9.5t-9 16.5t-3.5 25q0 13 3 22.5t8 16t11.5 9.5t14.5 3h113q70 0 126.5 19t96.5 54.5t61.5 85t21.5 110.5q0 45 -14.5 85t-43 70t-72 47t-101.5 17q-61 0 -111 -18t-88.5 -39.5t-63 -39.5t-34.5 -18q-6 0 -11 2t-8.5 8t-5 16.5
t-1.5 27.5q0 11 1 19.5t4 15.5t7 13.5t13 15.5t37 27t68.5 35t92.5 29t111 12q89 0 154.5 -24t108.5 -66t64 -99.5t21 -124.5q0 -62 -16.5 -115.5t-48.5 -95t-78.5 -69.5t-106.5 -38v-2q67 -6 123.5 -32t98 -67t65 -95.5t23.5 -117.5z" />
    <glyph glyph-name="four" unicode="4" horiz-adv-x="1038" 
d="M970 365q0 -23 -9.5 -37.5t-27.5 -14.5h-164v-293q0 -6 -3 -11t-10 -8t-18.5 -5t-29.5 -2q-17 0 -28.5 2t-18.5 5t-9.5 8t-2.5 11v293h-556q-9 0 -16 2.5t-12.5 8.5t-8 16t-2.5 25q0 13 1 23t3.5 19t7 17.5t10.5 18.5l501 829q5 7 12.5 12.5t19 9t27.5 5t37 1.5
q23 0 41 -2t30 -5.5t18.5 -9.5t6.5 -13v-853h164q17 0 27 -13t10 -39zM649 1190h-2l-465 -773h467v773z" />
    <glyph glyph-name="five" unicode="5" horiz-adv-x="1038" 
d="M903 413q0 -103 -34 -183t-96 -135t-148.5 -83.5t-190.5 -28.5q-60 0 -114 9.5t-96 22t-68.5 25t-33.5 19t-9.5 11t-4.5 11t-3 16t-1 22.5q0 12 1.5 22t5 17t8.5 10.5t11 3.5q10 0 31.5 -13t58.5 -28.5t91.5 -28.5t129.5 -13q71 0 132 17.5t106 55.5t70.5 96.5
t25.5 141.5q0 70 -22 122.5t-67 87.5t-113.5 52t-160.5 17q-63 0 -105.5 -6.5t-78.5 -6.5q-26 0 -38 12.5t-12 48.5v508q0 28 15.5 43.5t41.5 15.5h551q8 0 15 -3.5t12 -10.5t7.5 -17t2.5 -23q0 -23 -9.5 -39t-27.5 -16h-495v-410q35 5 72.5 6t90.5 1q114 0 198.5 -27.5
t140 -76.5t83 -117t27.5 -148z" />
    <glyph glyph-name="six" unicode="6" horiz-adv-x="1038" 
d="M947 412q0 -78 -24 -155t-76 -137.5t-133.5 -98.5t-196.5 -38q-76 0 -135 19.5t-103.5 56t-74.5 90t-49 122.5t-27.5 151.5t-8.5 178.5q0 86 10 172.5t34 165t63.5 146.5t98.5 117.5t139 78t185 28.5q37 0 74 -4.5t68.5 -11.5t53 -16t28.5 -14.5t10 -11t5 -11.5t3 -13.5
t1 -17.5q0 -11 -0.5 -20t-3 -15t-7.5 -9.5t-13 -3.5q-11 0 -29.5 7t-46 16t-66.5 16t-92 7q-101 0 -173.5 -42t-119.5 -113t-70 -164t-26 -195q28 16 62.5 32t75.5 28.5t87 20.5t97 8q109 0 182 -29t117 -79.5t62.5 -118t18.5 -143.5zM819 400q0 63 -13 115t-44 89
t-82.5 57.5t-127.5 20.5q-42 0 -84.5 -7.5t-82 -20.5t-75 -30.5t-63.5 -37.5q0 -140 18.5 -235.5t54.5 -154t89.5 -84t124.5 -25.5q74 0 128 28.5t89 74t51.5 101t16.5 109.5z" />
    <glyph glyph-name="seven" unicode="7" horiz-adv-x="1038" 
d="M936 1240q0 -12 -1 -22.5t-3 -21t-5.5 -21t-8.5 -22.5l-488 -1121q-5 -12 -11 -19.5t-15 -11.5t-22 -5.5t-32 -1.5q-23 0 -35.5 3t-17.5 9t-3.5 14t6.5 19l508 1146h-663q-18 0 -27.5 16t-9.5 39q0 13 2.5 23t7.5 17t11.5 10.5t15.5 3.5h745q13 0 22 -3t14 -10t7.5 -17
t2.5 -24z" />
    <glyph glyph-name="eight" unicode="8" horiz-adv-x="1038" 
d="M942 324q0 -82 -29.5 -145.5t-85 -107t-135.5 -66t-182 -22.5q-95 0 -172 20.5t-131.5 60.5t-84 98.5t-29.5 134.5q0 64 22 116.5t62.5 96.5t99 81.5t131.5 72.5q-65 32 -114.5 68t-83 77t-50.5 87.5t-17 99.5q0 63 23 120t70 100.5t120 69t172 25.5q93 0 161.5 -23.5
t113.5 -63.5t67 -93t22 -111q0 -54 -18 -102.5t-52 -91.5t-83.5 -80.5t-113.5 -70.5q77 -37 136.5 -74.5t99.5 -80t60.5 -90.5t20.5 -106zM766 1007q0 46 -16.5 83.5t-48.5 64t-78.5 40.5t-105.5 14q-121 0 -184.5 -54.5t-63.5 -149.5q0 -43 15.5 -80t47 -70.5t80 -65
t115.5 -64.5q115 56 177 126.5t62 155.5zM814 306q0 51 -19 92t-57.5 76.5t-96.5 69t-135 70.5q-72 -35 -126 -68.5t-89 -69.5t-52.5 -76t-17.5 -89q0 -107 75.5 -166.5t224.5 -59.5q144 0 218.5 59.5t74.5 161.5z" />
    <glyph glyph-name="nine" unicode="9" horiz-adv-x="1038" 
d="M920 693q0 -86 -11 -172.5t-36 -165.5t-66 -147t-101.5 -118t-142.5 -78.5t-188 -28.5q-44 0 -83.5 5.5t-70.5 13t-51.5 16t-29.5 16.5t-13.5 21t-4.5 34q0 15 1 24t4 14.5t7.5 7.5t11.5 2q10 0 29.5 -8t49.5 -17t71 -17t93 -8q105 0 180.5 41.5t124 111t73 161.5
t27.5 194q-57 -32 -136 -57.5t-182 -25.5q-111 0 -185 30.5t-118.5 82t-63 120t-18.5 145.5q0 80 23 155.5t73.5 134.5t131 95t195.5 36q76 0 135.5 -20.5t104.5 -58.5t77 -92.5t51.5 -123.5t28.5 -150.5t9 -172.5zM792 703q0 139 -19.5 235.5t-57 156.5t-92.5 87t-126 27
q-75 0 -127.5 -27.5t-86 -72t-49 -99.5t-15.5 -109q0 -63 14 -116.5t46 -91.5t84 -59.5t128 -21.5q85 0 164.5 25t136.5 66z" />
    <glyph glyph-name="colon" unicode=":" horiz-adv-x="538" 
d="M373 806q0 -27 -3.5 -45.5t-13.5 -29.5t-26.5 -15.5t-42.5 -4.5t-42 4.5t-26 15.5t-13.5 29.5t-3.5 45.5q0 29 3.5 47.5t13.5 29.5t26 15.5t42 4.5t42.5 -4.5t26.5 -15.5t13.5 -29.5t3.5 -47.5zM373 89q0 -28 -3.5 -46.5t-13.5 -29.5t-26.5 -15.5t-42.5 -4.5t-42 4.5
t-26 15.5t-13.5 29.5t-3.5 46.5t3.5 47t13.5 29.5t26 15t42 4.5t42.5 -4.5t26.5 -15t13.5 -29.5t3.5 -47z" />
    <glyph glyph-name="semicolon" unicode=";" horiz-adv-x="538" 
d="M373 806q0 -27 -3.5 -45.5t-13.5 -29.5t-26.5 -15.5t-42.5 -4.5t-42 4.5t-26 15.5t-13.5 29.5t-3.5 45.5q0 29 3.5 47.5t13.5 29.5t26 15.5t42 4.5t42.5 -4.5t26.5 -15.5t13.5 -29.5t3.5 -47.5zM373 121q0 -27 -2.5 -49t-8.5 -42t-16 -40t-25 -42l-139 -213
q-4 -6 -9.5 -10.5t-13 -7.5t-17.5 -4.5t-25 -1.5q-11 0 -19 1t-12 4t-4 7.5t3 11.5l139 274v112q0 22 4.5 35.5t13.5 20.5t23 9.5t33 2.5t33 -2.5t23.5 -9.5t14 -20.5t4.5 -35.5z" />
    <glyph glyph-name="less" unicode="&#x3c;" horiz-adv-x="1020" 
d="M921 156q0 -20 -1.5 -32t-5.5 -17t-10 -4t-16 6l-799 406q-8 5 -14 20.5t-6 41.5q0 12 2 22.5t5 18t7.5 13t9.5 7.5l795 404q20 10 26.5 2t6.5 -48q0 -22 -1 -35.5t-4.5 -22t-10 -13.5t-17.5 -11l-682 -341l682 -336q11 -6 17.5 -11t10 -13.5t4.5 -22t1 -34.5z" />
    <glyph glyph-name="equal" unicode="=" horiz-adv-x="1020" 
d="M920 766q0 -32 -11.5 -44t-22.5 -12h-753q-11 0 -22 12t-11 44q0 29 9.5 43t23.5 14h753q14 0 24 -14t10 -43zM920 386q0 -32 -11.5 -44t-22.5 -12h-753q-11 0 -22 12t-11 44q0 29 9.5 43t23.5 14h753q14 0 24 -14t10 -43z" />
    <glyph glyph-name="greater" unicode="&#x3e;" horiz-adv-x="1020" 
d="M953 573q0 -12 -2 -22.5t-5 -18.5t-7.5 -13t-9.5 -7l-796 -404q-9 -5 -15.5 -6t-10.5 4t-5.5 16.5t-1.5 31.5q0 21 1 34.5t4.5 22t10 14t17.5 10.5l683 342l-683 335q-11 6 -17.5 11t-10 13.5t-4.5 22t-1 35.5q0 20 1.5 31.5t5.5 16.5t10.5 4t15.5 -6l800 -406
q8 -4 14 -20t6 -41z" />
    <glyph glyph-name="question" unicode="?" horiz-adv-x="949" 
d="M849 992q0 -90 -26 -159.5t-72.5 -117.5t-111.5 -74t-144 -29l-6 -267q0 -13 -12 -19.5t-43 -6.5q-15 0 -26 1.5t-17.5 5t-9.5 8.5t-3 11l-5 300q0 18 4.5 30t13 19.5t21 10.5t29.5 3h26q72 0 122 22.5t80.5 60t44 87.5t13.5 105q0 62 -17 113.5t-51.5 89t-87 58
t-124.5 20.5q-61 0 -107.5 -13.5t-80.5 -30t-55.5 -30t-31.5 -13.5q-7 0 -12.5 2.5t-9 9t-5.5 17t-2 25.5q0 18 2.5 28.5t12.5 20t39.5 25.5t70.5 30t90 23.5t100 9.5q101 0 174.5 -29t121.5 -80t71.5 -119.5t23.5 -147.5zM523 89q0 -28 -3.5 -46.5t-13.5 -29.5t-26.5 -15.5
t-41.5 -4.5q-26 0 -42.5 4.5t-26.5 15.5t-13.5 29.5t-3.5 46.5t3.5 47t13.5 29.5t26.5 15t42.5 4.5q25 0 41.5 -4.5t26.5 -15t13.5 -29.5t3.5 -47z" />
    <glyph glyph-name="at" unicode="@" horiz-adv-x="1826" 
d="M1626 768q0 -64 -7.5 -133.5t-25 -135.5t-46 -125.5t-71 -104.5t-99.5 -71t-131 -26q-36 0 -68.5 9.5t-58 28t-43 47t-23.5 66.5q-40 -41 -77.5 -69.5t-73.5 -46.5t-69.5 -26.5t-64.5 -8.5q-40 0 -72 7.5t-57 22t-43 36.5t-30 51.5t-17.5 66t-5.5 80.5q0 41 6.5 95.5
t22 113t42.5 115t68 101t97.5 72t132.5 27.5q32 0 61.5 -8t56.5 -24.5t52 -40.5t49 -56l18 94q3 13 14 18.5t40 5.5q14 0 23.5 -1.5t15 -4.5t7.5 -7.5t1 -10.5l-91 -467q-18 -94 9.5 -139.5t101.5 -45.5q44 0 79.5 21.5t62 58t45 85t30 103t17 112t5.5 111.5q0 90 -24.5 172
t-82 144.5t-153.5 100t-240 37.5q-129 0 -227 -29.5t-171 -79t-123.5 -114t-83.5 -135t-51.5 -142.5t-27 -135.5t-10.5 -114.5t-2 -79q0 -112 26.5 -207.5t91.5 -166t175.5 -110.5t277.5 -40q71 0 127.5 8t98 17t67 17t34.5 8q6 0 10 -3t6 -9t3 -15t1 -21q0 -9 -0.5 -15
t-2 -11.5t-4.5 -11t-9 -10t-33 -14t-73 -19t-108.5 -16.5t-136.5 -7q-186 0 -313 44.5t-206 126t-113.5 195.5t-34.5 253q0 35 2.5 93.5t13.5 131t33.5 153t62 159.5t99.5 151.5t146.5 127.5t201.5 87.5t266 32.5q153 0 266.5 -38.5t188.5 -109.5t112 -173t37 -229z
M1096 717q-42 70 -86 106.5t-100 36.5q-47 0 -84 -22t-64.5 -57.5t-46.5 -80.5t-31 -91.5t-17 -90.5t-5 -77q0 -81 29.5 -124t98.5 -43q26 0 53.5 9t58.5 28.5t66 50.5t76 74zM0 1294z" />
    <glyph glyph-name="A" unicode="A" horiz-adv-x="1154" 
d="M1108 41q6 -15 5.5 -24.5t-7 -14.5t-20 -6.5t-34.5 -1.5t-33.5 1.5t-19.5 4.5t-10.5 8t-6.5 12l-124 345h-568l-119 -343q-2 -7 -6 -12t-11 -8.5t-19.5 -5.5t-31.5 -2q-21 0 -35 2t-20.5 7t-7 14t5.5 24l453 1231q3 8 9 13.5t15.5 8.5t23 4.5t30.5 1.5q18 0 31.5 -1.5
t23 -4.5t15 -8.5t8.5 -13.5zM571 1163h-1l-244 -696h495z" />
    <glyph glyph-name="B" unicode="B" horiz-adv-x="1096" 
d="M996 362q0 -57 -13.5 -106t-38.5 -89t-61 -71t-81.5 -52.5t-98.5 -32.5t-123 -11h-335q-18 0 -37 13.5t-19 49.5v1168q0 36 19 49.5t37 13.5h278q113 0 183 -23t115.5 -65.5t68 -103t22.5 -134.5q0 -46 -10.5 -88t-31.5 -78t-52.5 -65t-74.5 -49q52 -10 98 -37.5
t80.5 -69.5t54.5 -97.5t20 -121.5zM782 960q0 51 -14 92.5t-44.5 71t-79.5 45.5t-131 16h-202v-464h222q73 0 118 19.5t74 52.5t43 76.5t14 90.5zM866 352q0 64 -20.5 113t-60 82t-97.5 50t-144 17h-233v-505h282q62 0 109.5 15.5t84 46t58 76t21.5 105.5z" />
    <glyph glyph-name="C" unicode="C" horiz-adv-x="1096" 
d="M1036 176q0 -11 -1 -20t-3 -16t-5.5 -13t-13 -15.5t-41.5 -31t-80.5 -42.5t-111.5 -36t-139 -15q-122 0 -221 42.5t-168.5 124.5t-107 202t-37.5 274q0 158 40 283.5t112.5 213t174 134t224.5 46.5q58 0 112.5 -11t100.5 -28t82.5 -39t50 -35.5t17 -19.5t5.5 -13.5t3 -17
t1 -21.5q0 -14 -1.5 -24.5t-5 -18t-8.5 -11.5t-12 -4q-14 0 -39.5 20.5t-67 45.5t-101.5 45.5t-143 20.5q-91 0 -167 -36.5t-130.5 -107.5t-85 -175t-30.5 -239q0 -129 28 -229t81 -168.5t131 -104.5t177 -36q81 0 141.5 20.5t103.5 45.5t70.5 45.5t42.5 20.5q6 0 10 -2.5
t6.5 -9t4 -17.5t1.5 -27z" />
    <glyph glyph-name="D" unicode="D" horiz-adv-x="1243" 
d="M1140 666q0 -163 -41 -287.5t-121 -208.5t-197.5 -127t-280.5 -43h-255q-18 0 -37 13.5t-19 49.5v1168q0 36 19 49.5t37 13.5h272q165 0 278.5 -45t190 -127.5t115.5 -198t39 -257.5zM1009 660q0 113 -28.5 209.5t-88 166.5t-150.5 109.5t-232 39.5h-199v-1076h200
q132 0 223.5 32.5t152.5 100.5t91.5 171.5t30.5 246.5z" />
    <glyph glyph-name="E" unicode="E" horiz-adv-x="1001" 
d="M883 54q0 -13 -2 -23t-6.5 -17t-10.5 -10.5t-13 -3.5h-606q-18 0 -37 13.5t-19 49.5v1168q0 36 19 49.5t37 13.5h597q7 0 13 -3.5t10 -10.5t6 -17.5t2 -24.5q0 -13 -2 -23t-6 -16.5t-10 -10t-13 -3.5h-531v-455h458q8 0 14 -3.5t10 -10t6 -17t2 -24.5q0 -13 -2 -22.5
t-6 -15.5t-10 -9t-14 -3h-458v-516h540q7 0 13 -3.5t10.5 -10t6.5 -17t2 -24.5z" />
    <glyph glyph-name="F" unicode="F" horiz-adv-x="942" 
d="M844 1238q0 -13 -2 -23t-6.5 -16.5t-10.5 -10t-13 -3.5h-501v-490h475q7 0 13 -2.5t10.5 -8.5t6.5 -16t2 -25q0 -13 -2 -23t-6.5 -16.5t-10.5 -10t-13 -3.5h-475v-570q0 -6 -3 -11t-10 -8t-18.5 -5t-29.5 -2q-17 0 -29 2t-19 5t-10 8t-3 11v1211q0 36 19 49.5t37 13.5
h567q7 0 13 -3.5t10.5 -10.5t6.5 -17.5t2 -24.5z" />
    <glyph glyph-name="G" unicode="G" horiz-adv-x="1285" 
d="M1125 1131q0 -13 -2 -24t-5.5 -18.5t-9 -11.5t-11.5 -4q-12 0 -39.5 20t-73.5 43.5t-111.5 43.5t-155.5 20q-115 0 -205 -42.5t-152 -116.5t-94.5 -175.5t-32.5 -218.5q0 -131 37 -233.5t102.5 -173t156 -107.5t197.5 -37q69 0 140 17t133 52v419h-330q-16 0 -24 14
t-8 40q0 14 2 24.5t6 17t10 10t14 3.5h396q9 0 19 -3t18.5 -10t13.5 -19.5t5 -30.5v-481q0 -24 -7.5 -41t-34.5 -32.5t-72 -34t-93 -31t-96.5 -19t-95.5 -6.5q-147 0 -262.5 47.5t-195 134t-121.5 206t-42 263.5q0 151 45.5 275.5t128 212.5t197.5 136.5t254 48.5
q70 0 132.5 -13t112.5 -31.5t85 -40t47.5 -34t17 -24.5t4.5 -35z" />
    <glyph glyph-name="H" unicode="H" horiz-adv-x="1268" 
d="M1079 20q0 -6 -3 -11t-10 -8t-19 -5t-29 -2q-18 0 -29.5 2t-18.5 5t-10 8t-3 11v603h-646v-603q0 -6 -3 -11t-10 -8t-18.5 -5t-29.5 -2q-17 0 -29 2t-19 5t-10 8t-3 11v1254q0 6 3 11t10 8t19 5t29 2q18 0 29.5 -2t18.5 -5t10 -8t3 -11v-542h646v542q0 6 3 11t10 8
t18.5 5t29.5 2q17 0 29 -2t19 -5t10 -8t3 -11v-1254z" />
    <glyph glyph-name="I" unicode="I" horiz-adv-x="500" 
d="M311 20q0 -6 -3 -11t-10 -8t-18.5 -5t-29.5 -2q-17 0 -29 2t-19 5t-10 8t-3 11v1254q0 6 3.5 11t11 8t19 5t27.5 2q18 0 29.5 -2t18.5 -5t10 -8t3 -11v-1254z" />
    <glyph glyph-name="J" unicode="J" horiz-adv-x="640" 
d="M454 308q0 -72 -12.5 -132t-43.5 -103t-82 -66.5t-127 -23.5q-27 0 -53 5t-48 12.5t-38.5 16t-22 14.5t-8.5 11t-5.5 12t-3.5 17t-1 24q0 15 2 25t5.5 15.5t8.5 8t12 2.5q8 0 21 -8.5t31.5 -18t43.5 -18t58 -8.5q37 0 63.5 9t43.5 35t25.5 71.5t8.5 119.5v946q0 6 3 11
t10 8t19 5t29 2t29 -2t19 -5t10 -8t3 -11v-966z" />
    <glyph glyph-name="K" unicode="K" horiz-adv-x="1033" 
d="M977 22q0 -7 -2 -12t-9 -8.5t-19 -5.5t-31 -2q-18 0 -36.5 2t-28.5 8.5t-17 15.5l-523 664v-664q0 -6 -3 -11t-10 -8t-18.5 -5t-29.5 -2q-17 0 -29 2t-19 5t-10 8t-3 11v1254q0 6 3 11t10 8t19 5t29 2q18 0 29.5 -2t18.5 -5t10 -8t3 -11v-588l501 588q6 7 13 12t16 8
t21 4.5t30 1.5t29 -2t17.5 -5.5t8.5 -8t2 -10.5q0 -11 -5.5 -21t-18.5 -24l-471 -539l503 -631q14 -18 17 -25t3 -12z" />
    <glyph glyph-name="L" unicode="L" horiz-adv-x="858" 
d="M838 56q0 -14 -2 -24t-6 -17.5t-10 -11t-14 -3.5h-561q-18 0 -37 13.5t-19 49.5v1211q0 6 3 11t10 8t19 5t29 2q18 0 29.5 -2t18.5 -5t10 -8t3 -11v-1163h495q8 0 14 -3.5t10 -10t6 -17t2 -24.5z" />
    <glyph glyph-name="M" unicode="M" horiz-adv-x="1730" 
d="M1541 20q0 -6 -3 -11t-10.5 -8t-19 -5t-29.5 -2q-16 0 -28 2t-19 5t-10 8t-3 11v1167h-2l-509 -1174q-2 -4 -6 -7.5t-11 -6t-16.5 -4t-22.5 -1.5q-14 0 -24 1.5t-16.5 4t-10.5 6t-5 7.5l-484 1174h-1v-1167q0 -6 -3 -11t-10.5 -8t-19 -5t-30.5 -2q-17 0 -28.5 2t-18.5 5
t-9.5 8t-2.5 11v1211q0 36 19 49.5t37 13.5h66q25 0 44 -5.5t33.5 -16t24.5 -25.5t18 -34l427 -1028h5l445 1024q10 24 21.5 40.5t24 26.5t27 14t31.5 4h73q9 0 19 -3t18 -10.5t13.5 -19.5t5.5 -30v-1211z" />
    <glyph glyph-name="N" unicode="N" horiz-adv-x="1307" 
d="M1118 59q0 -18 -5.5 -30t-14 -19.5t-19 -10.5t-19.5 -3h-25q-20 0 -36.5 5t-32 17.5t-31 33.5t-34.5 54l-456 808q-34 59 -68.5 121.5t-65.5 121.5h-1q1 -73 1 -149.5v-149.5v-838q0 -6 -3 -11t-10 -8t-18.5 -5t-29.5 -2q-17 0 -29 2t-19 5t-10 8t-3 11v1211
q0 36 19 49.5t37 13.5h50q24 0 40 -4t29 -13.5t25.5 -27t27.5 -44.5l349 -619q33 -58 62.5 -111.5t57.5 -105t55.5 -101.5t54.5 -101h1q-1 84 -1 175v175v753q0 6 3 11t10 8.5t18.5 5t29.5 1.5q16 0 28 -1.5t19 -5t10.5 -8.5t3.5 -11v-1211z" />
    <glyph glyph-name="O" unicode="O" horiz-adv-x="1340" 
d="M1230 662q0 -155 -35.5 -280.5t-106.5 -214t-179 -136.5t-252 -48t-247.5 45.5t-170 130t-98 206.5t-31.5 275q0 152 35 276t106.5 211.5t179 135.5t252.5 48q141 0 244 -45t170.5 -129t100 -204t32.5 -271zM1100 651q0 115 -21.5 215.5t-71 175t-131.5 117t-203 42.5
q-120 0 -202.5 -44.5t-134 -119.5t-74 -175t-22.5 -211q0 -118 20.5 -219.5t69.5 -176.5t131 -117.5t205 -42.5q122 0 205 45.5t134 122t73 177t22 211.5z" />
    <glyph glyph-name="P" unicode="P" horiz-adv-x="1040" 
d="M934 923q0 -90 -30.5 -165t-87.5 -129t-139 -84t-198 -30h-168v-495q0 -6 -3 -11t-10 -8t-18.5 -5t-29.5 -2q-17 0 -29 2t-19 5t-10 8t-3 11v1211q0 36 19 49.5t37 13.5h263q39 0 76 -3.5t86.5 -15t101 -43t87.5 -77t55.5 -104t19.5 -128.5zM805 912q0 84 -33 142.5
t-80.5 87t-99 36t-97.5 7.5h-184v-562h176q85 0 142 21.5t96 59.5t59.5 91.5t20.5 116.5z" />
    <glyph glyph-name="Q" unicode="Q" horiz-adv-x="1364" 
d="M1409 -109q0 -16 -2.5 -27.5t-7 -18.5t-9.5 -10t-11 -3q-12 0 -51.5 16t-95.5 46t-122.5 73.5t-132.5 101.5q-51 -35 -131 -60.5t-189 -25.5q-144 0 -247.5 45.5t-170 130t-98 206.5t-31.5 275q0 152 35 276t106.5 211.5t179 135.5t252.5 48q136 0 238.5 -45t171 -129
t103 -204t34.5 -271q0 -77 -9 -150t-28.5 -139t-50 -123.5t-72.5 -103.5q78 -65 137 -101t97 -55t58.5 -27t29.5 -17t13 -22t4 -33zM1100 651q0 115 -21.5 215.5t-71 175t-131.5 117t-203 42.5q-120 0 -202.5 -44.5t-134 -119.5t-74 -175t-22.5 -211q0 -118 20.5 -219.5
t69.5 -176.5t131 -117.5t205 -42.5q122 0 205 45.5t134 122t73 177t22 211.5z" />
    <glyph glyph-name="R" unicode="R" horiz-adv-x="1090" 
d="M999 22q0 -7 -2.5 -12t-9.5 -8.5t-19.5 -5.5t-31.5 -2q-17 0 -28.5 1.5t-19.5 6t-13 12t-9 19.5l-121 314q-21 53 -45 100t-58 81.5t-82 54.5t-115 20h-134v-583q0 -6 -3 -11t-10 -8t-18.5 -5t-29.5 -2q-17 0 -29 2t-19 5t-10 8t-3 11v1211q0 36 19 49.5t37 13.5h243
q48 0 79.5 -2.5t57.5 -6.5q74 -13 129 -42t91 -71.5t53.5 -96t17.5 -115.5q0 -64 -18 -114.5t-51 -89t-79 -66.5t-101 -47q33 -15 59.5 -37t49 -53t42.5 -71.5t40 -90.5l121 -302q13 -35 16.5 -48t3.5 -19zM784 947q0 83 -37 140.5t-124 82.5q-29 8 -63 11.5t-89 3.5h-160
v-475h186q75 0 129 18.5t89.5 50.5t52 75t16.5 93z" />
    <glyph glyph-name="S" unicode="S" horiz-adv-x="927" 
d="M844 350q0 -86 -31 -154t-87 -115.5t-133 -72.5t-168 -25q-62 0 -117 11.5t-98 27.5t-72.5 32.5t-40.5 28t-16 27t-5 38.5q0 17 2 28t5.5 18t9 9.5t11.5 2.5q14 0 39.5 -17.5t66 -38t97 -38t131.5 -17.5q61 0 112 16.5t88 47.5t57.5 76.5t20.5 103.5q0 60 -26 103
t-68.5 75.5t-96.5 59t-110.5 53t-110.5 57.5t-96.5 72.5t-68.5 97.5t-26 133q0 75 27 134.5t76 101t117.5 63.5t150.5 22q41 0 83 -8t79.5 -20.5t67 -28t39 -25t12 -14t4.5 -11.5t3 -16.5t1 -23.5q0 -13 -1.5 -23.5t-4.5 -18t-7.5 -11.5t-10.5 -4q-11 0 -33.5 14.5
t-56.5 32.5t-81 32.5t-107 14.5q-59 0 -103 -16t-73 -43.5t-43.5 -64.5t-14.5 -78q0 -60 26 -103t69 -76t97.5 -59.5t111 -53t111 -57t97.5 -72t69 -97t26 -131.5z" />
    <glyph glyph-name="T" unicode="T" horiz-adv-x="990" 
d="M973 1238q0 -13 -2 -23t-6 -16.5t-10 -10t-13 -3.5h-386v-1165q0 -6 -3 -11t-10 -8t-19 -5t-29 -2t-29 2t-19 5t-10 8t-3 11v1165h-386q-8 0 -13.5 3.5t-9.5 10t-6 16.5t-2 23q0 14 2 24.5t6 17.5t9.5 10.5t13.5 3.5h894q7 0 13 -3.5t10 -10.5t6 -17.5t2 -24.5z" />
    <glyph glyph-name="U" unicode="U" horiz-adv-x="1302" 
d="M1116 476q0 -118 -33.5 -210t-95.5 -155t-150 -95.5t-197 -32.5q-99 0 -182.5 31t-144 91.5t-94 150t-33.5 206.5v812q0 6 3 11t10.5 8t18.5 5t29 2q17 0 29 -2t19 -5t10 -8t3 -11v-792q0 -97 23.5 -170t68 -121.5t108 -73t143.5 -24.5q81 0 144.5 23.5t107.5 71.5
t67.5 119.5t23.5 167.5v799q0 6 3 11t10 8t19 5t29 2t29 -2t19 -5t10 -8t3 -11v-798z" />
    <glyph glyph-name="V" unicode="V" horiz-adv-x="1135" 
d="M645 22q-3 -8 -9 -13.5t-15.5 -8.5t-23 -4.5t-30.5 -1.5q-12 0 -22 0.5t-18 2t-14 3.5t-11 5t-8 7t-5 10l-443 1231q-6 15 -5.5 24.5t7.5 14.5t21 6.5t37 1.5q19 0 30.5 -1.5t18 -4.5t10 -8t6.5 -12l402 -1139h1l390 1139q2 7 5 12t10.5 8t20.5 4.5t34 1.5q23 0 36.5 -2
t19 -7t5 -14t-6.5 -24z" />
    <glyph glyph-name="W" unicode="W" horiz-adv-x="1804" 
d="M1361 22q-3 -8 -9.5 -13.5t-17 -8.5t-24 -4.5t-31.5 -1.5t-32 1.5t-24.5 4.5t-17 8.5t-9.5 13.5l-306 1063h-2l-280 -1063q-2 -8 -7.5 -13.5t-15 -8.5t-23 -4.5t-32.5 -1.5q-20 0 -34.5 1.5t-25.5 4.5t-17.5 8.5t-9.5 13.5l-367 1231q-5 16 -5 25t6.5 14t20 6.5t35.5 1.5
t35 -1.5t20 -4.5t9.5 -8t4.5 -12l325 -1135h1l299 1135q2 7 5 12t10.5 8t21 4.5t35.5 1.5q17 0 27.5 -1.5t17 -4.5t10 -8t5.5 -12l326 -1135h2l317 1135q2 7 4.5 12t9.5 8t19 4.5t33 1.5q22 0 35 -2t19.5 -7t7 -14t-3.5 -24z" />
    <glyph glyph-name="X" unicode="X" horiz-adv-x="1027" 
d="M960 41q9 -14 10 -23t-6 -14.5t-21.5 -7.5t-37.5 -2t-36 1.5t-21 4.5t-12.5 8t-8.5 12l-312 540l-318 -540q-5 -7 -10 -12t-13 -8t-21 -4.5t-34 -1.5q-23 0 -37 2t-20 7.5t-5 14.5t10 23l376 612l-363 600q-9 14 -10.5 23t4.5 14.5t19.5 7.5t36.5 2q22 0 35.5 -1.5
t22 -4.5t13 -8t9.5 -12l307 -514l306 514q4 7 8 12t11 8t19 4.5t33 1.5t35.5 -2t21.5 -7.5t6.5 -14.5t-8.5 -23l-363 -595z" />
    <glyph glyph-name="Y" unicode="Y" horiz-adv-x="961" 
d="M542 510v-490q0 -6 -3 -11t-10 -8t-19 -5t-29 -2q-18 0 -29.5 2t-19 5t-10.5 8t-3 11v490l-372 743q-7 15 -8 24t4.5 14t18.5 7t33 2q22 0 35.5 -1.5t22 -4.5t12.5 -8t8 -12l198 -403q28 -57 55.5 -118t55.5 -123h2q26 59 53 119t55 119l200 406q3 7 7 12t11 8t18.5 4.5
t28.5 1.5q24 0 39 -2t21 -7.5t5 -14.5t-8 -23z" />
    <glyph glyph-name="Z" unicode="Z" horiz-adv-x="949" 
d="M905 54q0 -13 -2 -23t-6 -17t-10 -10.5t-14 -3.5h-765q-19 0 -32 12.5t-13 41.5v33q0 9 1.5 17.5t5.5 18.5t11.5 23t18.5 30l649 1009h-641q-8 0 -14 3.5t-10 10t-6 16.5t-2 23q0 14 2 24.5t6 17.5t10 10.5t14 3.5h724q19 0 32 -12.5t13 -41.5v-33q0 -10 -1.5 -19
t-5.5 -19t-11.5 -22.5t-18.5 -28.5l-649 -1009h682q16 0 24 -13.5t8 -41.5z" />
    <glyph glyph-name="bracketleft" unicode="[" horiz-adv-x="608" 
d="M517 -267q0 -23 -6.5 -33.5t-19.5 -10.5h-226q-9 0 -18.5 3t-18 10t-13.5 19.5t-5 30.5v1575q0 18 5 30.5t13.5 19.5t18 10t18.5 3h226q6 0 11 -2.5t8.5 -8.5t5 -14.5t1.5 -20.5q0 -23 -6.5 -33.5t-19.5 -10.5h-168v-1521h168q6 0 11 -2.5t8.5 -8.5t5 -14.5t1.5 -20.5z
" />
    <glyph glyph-name="backslash" unicode="\" horiz-adv-x="742" 
d="M738 -226q4 -12 3.5 -19.5t-6.5 -11t-17.5 -5t-29.5 -1.5t-29.5 1t-19 3t-11.5 6.5t-7 11.5l-615 1663q-5 12 -4.5 19.5t6.5 11t18 5t30 1.5t29.5 -1t19 -3.5t11 -6.5t6.5 -11z" />
    <glyph glyph-name="bracketright" unicode="]" horiz-adv-x="608" 
d="M399 -248q0 -18 -5.5 -30.5t-13.5 -19.5t-18 -10t-19 -3h-226q-13 0 -19.5 10.5t-6.5 33.5q0 12 1.5 20.5t5 14.5t8.5 8.5t11 2.5h169v1521h-169q-13 0 -19.5 10.5t-6.5 33.5q0 12 1.5 20.5t5 14.5t8.5 8.5t11 2.5h226q9 0 19 -3t18 -10t13.5 -19.5t5.5 -30.5v-1575z" />
    <glyph glyph-name="asciicircum" unicode="^" horiz-adv-x="1020" 
d="M862 640q6 -14 6 -22.5t-6.5 -13t-20 -6t-33.5 -1.5t-32.5 1.5t-20.5 4.5t-12 7.5t-7 10.5l-239 556l-2 -3l-222 -553q-3 -6 -7 -10.5t-11.5 -7.5t-19.5 -4.5t-31 -1.5q-20 0 -32.5 1.5t-18.5 6.5t-6.5 13t5.5 22l280 643q3 7 8.5 12t14 7.5t20 3.5t27.5 1q17 0 29 -1
t20 -3.5t13.5 -7.5t8.5 -12z" />
    <glyph glyph-name="underscore" unicode="_" horiz-adv-x="1020" 
d="M1023 -313q0 -26 -7.5 -39t-21.5 -13h-970q-14 0 -22 12t-8 38t8 40t22 14h970q13 0 21 -13t8 -39z" />
    <glyph glyph-name="grave" unicode="`" horiz-adv-x="586" 
d="M430 1133q6 -9 7.5 -16t-2 -11.5t-12.5 -7t-24 -2.5t-25 1t-17.5 4t-13.5 8.5t-13 15.5l-174 234q-7 9 -8 16.5t4 13t17 8.5t31 3t32 -1.5t22 -5t16 -10.5t14 -17z" />
    <glyph glyph-name="a" unicode="a" horiz-adv-x="964" 
d="M801 20q0 -10 -6.5 -15.5t-17 -8t-28.5 -2.5q-17 0 -29 2.5t-18.5 8t-6.5 15.5v101q-61 -66 -134.5 -102t-152.5 -36q-71 0 -127.5 18.5t-95.5 53t-60 83.5t-21 110q0 75 31 130.5t88 92.5t137 55.5t178 18.5h144v78q0 58 -12 102.5t-39 74.5t-70 45t-105 15
q-60 0 -108 -14.5t-84 -32.5t-59.5 -32.5t-33.5 -14.5q-6 0 -11 2t-8.5 7.5t-5 14t-1.5 20.5q0 21 3 33.5t15.5 25t44.5 29.5t73.5 31.5t89.5 23.5t96 9q93 0 157 -22.5t103.5 -64.5t56.5 -103.5t17 -139.5v-612zM682 447h-165q-72 0 -126 -13t-90 -38t-53.5 -60t-17.5 -80
q0 -78 49.5 -124.5t139.5 -46.5q71 0 132.5 36.5t130.5 112.5v213z" />
    <glyph glyph-name="b" unicode="b" horiz-adv-x="1064" 
d="M957 484q0 -116 -25 -208.5t-74.5 -157.5t-122 -100t-166.5 -35q-42 0 -77.5 8.5t-69.5 27.5t-69.5 48t-76.5 70v-117q0 -7 -3 -12t-10 -8t-17 -4.5t-25 -1.5t-25.5 1.5t-17 4.5t-9 8t-2.5 12v1348q0 6 2.5 11t9.5 8.5t18.5 5t28.5 1.5q18 0 29.5 -1.5t18 -5t9.5 -8.5
t3 -11v-565q43 45 82 75.5t76 49t73.5 26.5t75.5 8q98 0 167.5 -38t113 -103t63.5 -152t20 -185zM832 465q0 76 -12 147t-41 126t-77 88.5t-120 33.5q-35 0 -69.5 -10t-70.5 -33t-74.5 -59.5t-81.5 -90.5v-394q75 -91 144.5 -139.5t144.5 -48.5q69 0 118 33.5t80 87.5
t45 122t14 137z" />
    <glyph glyph-name="c" unicode="c" horiz-adv-x="871" 
d="M799 154q0 -12 -1 -21.5t-3 -16.5t-5.5 -12.5t-16.5 -18.5t-43.5 -33t-68.5 -35t-82 -24.5t-91 -9.5q-94 0 -166.5 31.5t-121.5 93t-74.5 151t-25.5 206.5q0 132 31.5 226t86.5 154t128.5 88.5t157.5 28.5q45 0 86 -8.5t75.5 -22.5t61.5 -32t39.5 -30.5t17 -19t7 -14.5
t3.5 -17.5t1 -22.5q0 -29 -8.5 -40.5t-18.5 -11.5q-14 0 -34.5 18t-52.5 39.5t-77.5 39.5t-108.5 18q-130 0 -200.5 -100t-70.5 -289q0 -95 19 -166.5t54.5 -119t86.5 -71t115 -23.5q60 0 106 19t80 42t56.5 42t33.5 19q6 0 10.5 -3.5t7.5 -11t4.5 -18t1.5 -24.5z" />
    <glyph glyph-name="d" unicode="d" horiz-adv-x="1064" 
d="M897 20q0 -7 -2.5 -12t-9 -8t-16.5 -4.5t-25 -1.5q-16 0 -26.5 1.5t-17 4.5t-10 8t-3.5 12v130q-72 -78 -149 -122.5t-168 -44.5q-98 0 -167 38t-112.5 103t-63.5 152.5t-20 185.5q0 115 25 207.5t74 157.5t121 100t167 35q82 0 150 -36.5t134 -107.5v545q0 6 2.5 11
t9.5 8t18.5 5t28.5 2q18 0 29.5 -2t18 -5t9.5 -8t3 -11v-1343zM778 673q-75 91 -144.5 139t-145.5 48q-69 0 -118 -33t-80 -87t-45 -122t-14 -138q0 -75 12 -146t41 -126.5t77 -89t120 -33.5q36 0 70 10t70 33t74.5 59.5t82.5 90.5v395z" />
    <glyph glyph-name="e" unicode="e" horiz-adv-x="1012" 
d="M905 519q0 -36 -19 -49.5t-37 -13.5h-617q0 -84 16.5 -152t54.5 -116.5t99 -74.5t150 -26q63 0 113 11t86.5 24.5t60 24.5t33.5 11q6 0 11 -3t8 -9.5t4.5 -16.5t1.5 -25q0 -7 -1 -13.5t-2.5 -12t-4.5 -10.5t-8 -10t-31 -17.5t-68 -25t-97.5 -22.5t-119.5 -10
q-105 0 -186 31.5t-136 93t-83.5 152.5t-28.5 211q0 115 29.5 206t84.5 154.5t132.5 97t172.5 33.5q102 0 174 -34t118.5 -91.5t68 -133.5t21.5 -160v-24zM782 554q3 144 -66 225t-201 81q-68 0 -119.5 -25.5t-87 -67.5t-54.5 -97.5t-22 -115.5h550z" />
    <glyph glyph-name="f" unicode="f" horiz-adv-x="612" 
d="M636 1311q0 -14 -1.5 -22.5t-4 -13.5t-6 -7t-8.5 -2q-8 0 -19 5t-27.5 11t-39 11t-52.5 5q-42 0 -71 -13.5t-47 -43t-25.5 -76t-7.5 -112.5v-107h222q7 0 12 -3t9 -9.5t6 -16t2 -22.5q0 -25 -8 -37.5t-21 -12.5h-222v-825q0 -6 -3 -11t-9.5 -8t-18.5 -5t-29 -2t-28.5 2
t-18.5 5t-9.5 8t-2.5 11v825h-136q-14 0 -21.5 12.5t-7.5 37.5q0 13 2 22.5t5.5 16t9 9.5t12.5 3h136v103q0 95 17 162t51.5 109t86.5 61t121 19q34 0 66 -6.5t48.5 -14t22 -13t9 -13.5t5 -18.5t1.5 -23.5z" />
    <glyph glyph-name="g" unicode="g" horiz-adv-x="960" 
d="M892 895q0 -28 -9 -39t-23 -11h-143q42 -43 58.5 -93.5t16.5 -106.5q0 -77 -24.5 -137t-69.5 -101.5t-107 -63.5t-137 -22q-61 0 -116 17t-86 42q-20 -20 -33 -46t-13 -60q0 -38 36.5 -64t94.5 -28l245 -10q62 -2 116.5 -17t95.5 -44.5t65 -72.5t24 -101
q0 -60 -24.5 -115t-76 -96.5t-131.5 -66t-191 -24.5q-106 0 -180.5 18.5t-122 51t-69 76.5t-21.5 95q0 35 8 66t24.5 59t41 54t56.5 53q-51 26 -75 63t-24 79q0 62 24 109.5t58 85.5q-29 38 -45 83t-16 108q0 76 25 136.5t69.5 102.5t106.5 64.5t136 22.5q39 0 73.5 -4.5
t63.5 -11.5h267q17 0 24.5 -13t7.5 -38zM669 643q0 103 -56.5 161t-160.5 58q-53 0 -93 -18t-66 -49t-39 -72t-13 -87q0 -100 56.5 -157.5t158.5 -57.5q54 0 94.5 18t66.5 48.5t39 71t13 84.5zM764 -70q0 66 -53.5 101t-143.5 38l-263 9q-36 -28 -59 -53t-36.5 -48.5
t-18.5 -46t-5 -45.5q0 -74 74.5 -112t207.5 -38q84 0 140.5 16.5t91.5 43.5t50 62t15 73z" />
    <glyph glyph-name="h" unicode="h" horiz-adv-x="1064" 
d="M901 20q0 -6 -3 -11t-9.5 -8t-18 -5t-28.5 -2q-18 0 -29.5 2t-18 5t-9.5 8t-3 11v537q0 84 -13 136.5t-39 90t-66.5 58t-94.5 20.5q-69 0 -138 -49t-145 -144v-649q0 -6 -3 -11t-9.5 -8t-18 -5t-29.5 -2q-17 0 -28.5 2t-18.5 5t-9.5 8t-2.5 11v1348q0 6 2.5 11t9.5 8.5
t18.5 5t28.5 1.5q18 0 29.5 -1.5t18 -5t9.5 -8.5t3 -11v-565q74 82 148 120.5t148 38.5q89 0 150 -30t98.5 -81t54 -119t16.5 -164v-548z" />
    <glyph glyph-name="i" unicode="i" horiz-adv-x="452" 
d="M286 20q0 -6 -3 -11t-9.5 -8t-18 -5t-29.5 -2q-17 0 -28.5 2t-18.5 5t-9.5 8t-2.5 11v905q0 6 2.5 11t9.5 8.5t18.5 5t28.5 1.5q18 0 29.5 -1.5t18 -5t9.5 -8.5t3 -11v-905zM304 1230q0 -48 -17 -65t-62 -17q-44 0 -60.5 16.5t-16.5 64.5t17 65t62 17q44 0 60.5 -16.5
t16.5 -64.5z" />
    <glyph glyph-name="j" unicode="j" horiz-adv-x="471" 
d="M304 -26q0 -97 -13.5 -156t-43 -100t-77 -62t-116.5 -21q-26 0 -45.5 3.5t-30.5 7.5t-15.5 9.5t-6 12t-2 12.5t-0.5 14q0 13 1.5 22.5t4.5 15.5t7.5 9t10.5 3t24.5 -2.5t45.5 -2.5q37 0 63 11t42.5 36.5t24 66.5t7.5 121v951q0 6 3 11t9.5 8.5t18 5t29.5 1.5
q17 0 28.5 -1.5t18 -5t9.5 -8.5t3 -11v-951zM323 1230q0 -48 -17 -65t-62 -17q-44 0 -60.5 16.5t-16.5 64.5t17 65t62 17q44 0 60.5 -16.5t16.5 -64.5z" />
    <glyph glyph-name="k" unicode="k" horiz-adv-x="903" 
d="M857 22q0 -7 -3 -12t-10 -8.5t-19 -5.5t-31 -2q-20 0 -33 1.5t-22.5 4.5t-16 8t-12.5 12l-424 514v-514q0 -6 -3 -11t-9.5 -8t-18 -5t-29.5 -2q-17 0 -28.5 2t-18.5 5t-9.5 8t-2.5 11v1348q0 6 2.5 11t9.5 8.5t18.5 5t28.5 1.5q18 0 29.5 -1.5t18 -5t9.5 -8.5t3 -11v-832
l381 385q8 9 16.5 14.5t18.5 9t23 5t30 1.5t29.5 -1t20.5 -4t12 -7.5t4 -11.5q0 -10 -6 -19.5t-21 -24.5l-362 -342l402 -480q13 -15 18 -23t5 -16z" />
    <glyph glyph-name="l" unicode="l" horiz-adv-x="452" 
d="M286 20q0 -6 -3 -11t-9.5 -8t-18 -5t-29.5 -2q-17 0 -28.5 2t-18.5 5t-9.5 8t-2.5 11v1348q0 6 2.5 11t9.5 8.5t18.5 5t28.5 1.5q18 0 29.5 -1.5t18 -5t9.5 -8.5t3 -11v-1348z" />
    <glyph glyph-name="m" unicode="m" horiz-adv-x="1620" 
d="M1457 20q0 -6 -3 -11t-9.5 -8t-18 -5t-28.5 -2q-18 0 -29.5 2t-18.5 5t-9.5 8t-2.5 11v557q0 64 -11.5 116.5t-36 90t-62 58t-88.5 20.5q-63 0 -127.5 -49t-141.5 -144v-649q0 -6 -3 -11t-9.5 -8t-18 -5t-28.5 -2t-28.5 2t-18.5 5t-9.5 8t-2.5 11v557q0 64 -12 116.5
t-36.5 90t-62 58t-88.5 20.5q-63 0 -127.5 -49t-140.5 -144v-649q0 -6 -3 -11t-9.5 -8t-18 -5t-29.5 -2q-17 0 -28.5 2t-18.5 5t-9.5 8t-2.5 11v905q0 6 2.5 11t9.5 8.5t17.5 5t27.5 1.5t28 -1.5t17 -5t8.5 -8.5t2.5 -11v-128q78 87 148 126t139 39q57 0 101.5 -13.5
t78.5 -38t58 -58.5t39 -75q47 52 88.5 87.5t79 57t72.5 31t69 9.5q85 0 143.5 -30t94 -81t51 -119t15.5 -144v-568z" />
    <glyph glyph-name="n" unicode="n" horiz-adv-x="1064" 
d="M901 20q0 -6 -3 -11t-9.5 -8t-18 -5t-28.5 -2q-18 0 -29.5 2t-18 5t-9.5 8t-3 11v537q0 84 -13 136.5t-39 90t-66.5 58t-94.5 20.5q-69 0 -138 -49t-145 -144v-649q0 -6 -3 -11t-9.5 -8t-18 -5t-29.5 -2q-17 0 -28.5 2t-18.5 5t-9.5 8t-2.5 11v905q0 6 2.5 11t9.5 8.5
t17.5 5t27.5 1.5t28 -1.5t17 -5t8.5 -8.5t2.5 -11v-128q78 87 153 126t149 39q89 0 150 -30t98.5 -81t54 -119t16.5 -164v-548z" />
    <glyph glyph-name="o" unicode="o" horiz-adv-x="1068" 
d="M968 482q0 -108 -28 -199t-83.5 -158t-138.5 -104.5t-193 -37.5q-106 0 -185.5 33.5t-133 96t-80 151.5t-26.5 201q0 108 27.5 199t83 157.5t138.5 103.5t194 37q106 0 185.5 -33t132.5 -95.5t80 -151.5t27 -200zM842 471q0 77 -15 147t-50 123.5t-94 85t-147 31.5
q-81 0 -140 -29t-96.5 -80.5t-55.5 -121.5t-18 -151q0 -78 15 -148.5t50 -123.5t94 -84t147 -31q81 0 140 29t96.5 80t55.5 121t18 152z" />
    <glyph glyph-name="p" unicode="p" horiz-adv-x="1064" 
d="M957 486q0 -116 -25.5 -209t-75 -158t-122.5 -100.5t-167 -35.5q-40 0 -75 8.5t-68.5 26.5t-67 45t-70.5 65v-467q0 -6 -3 -11t-9.5 -8.5t-18 -5t-29.5 -1.5q-17 0 -28.5 1.5t-18.5 5t-9.5 8.5t-2.5 11v1264q0 7 2.5 12t9 8t17 4.5t25.5 1.5t25 -1.5t17 -4.5t10 -8t3 -12
v-131q42 43 80 74.5t76 52.5t78 31t85 10q98 0 167 -37.5t112.5 -102.5t63 -151.5t19.5 -184.5zM832 467q0 76 -12 146.5t-40.5 125.5t-76 88t-119.5 33q-36 0 -70.5 -10t-70.5 -33t-75 -59.5t-82 -90.5v-394q75 -91 143.5 -139.5t143.5 -48.5q69 0 118.5 33.5t80.5 88
t45.5 123t14.5 137.5z" />
    <glyph glyph-name="q" unicode="q" horiz-adv-x="1064" 
d="M897 -339q0 -6 -3 -11t-9.5 -8.5t-18 -5t-28.5 -1.5q-18 0 -29.5 1.5t-18.5 5t-9.5 8.5t-2.5 11v482q-44 -45 -83 -76t-76 -49.5t-73.5 -26.5t-75.5 -8q-98 0 -167 38t-112.5 103t-63.5 152.5t-20 185.5q0 115 25 207.5t74 157.5t121 100t167 35q42 0 77.5 -8.5t70 -27
t69.5 -48t76 -70.5v117q0 7 3.5 12t10 8t17 4.5t26.5 1.5q15 0 25 -1.5t16.5 -4.5t9 -8t2.5 -12v-1264zM778 673q-75 91 -144.5 139t-145.5 48q-69 0 -118 -33t-80 -87t-45 -122t-14 -138q0 -76 12 -147t41 -126t77 -88.5t120 -33.5q36 0 70 10t70 33t74.5 59.5t82.5 90.5
v395z" />
    <glyph glyph-name="r" unicode="r" horiz-adv-x="706" 
d="M669 879q0 -15 -1 -25.5t-3.5 -17t-6 -10t-9.5 -3.5q-9 0 -21 4.5t-28 9.5t-35 9.5t-42 4.5q-27 0 -53 -11.5t-54.5 -37t-60 -67.5t-69.5 -103v-612q0 -6 -3 -11t-9.5 -8t-18 -5t-29.5 -2q-17 0 -28.5 2t-18.5 5t-9.5 8t-2.5 11v905q0 6 2.5 11t9.5 8.5t17.5 5t27.5 1.5
t28 -1.5t17 -5t8.5 -8.5t2.5 -11v-143q39 57 72 92t63 54.5t58.5 26.5t58.5 7q13 0 30 -1.5t36.5 -5.5t35 -9.5t21.5 -10t8 -8t3.5 -9t2 -15t0.5 -24.5z" />
    <glyph glyph-name="s" unicode="s" horiz-adv-x="792" 
d="M699 261q0 -65 -24 -116.5t-68.5 -87.5t-106.5 -55t-137 -19q-47 0 -89 7.5t-76 19t-57.5 24.5t-34.5 23t-16 25t-5 40q0 13 2 23t5 17t8 10.5t11 3.5q11 0 32 -14t52.5 -30.5t75 -30.5t100.5 -14q46 0 84 10t66 30t43.5 51.5t15.5 73.5t-20 71t-52.5 50.5t-74 38t-85 34
t-85 38.5t-74 51t-52.5 72t-20 101q0 47 18 92.5t55.5 81.5t96 58t138.5 22q34 0 67.5 -5.5t61 -14.5t47.5 -19.5t30.5 -18.5t14 -13.5t5 -11.5t2.5 -14.5t1 -20.5t-1.5 -21.5t-4.5 -16.5t-7.5 -10.5t-10.5 -3.5q-8 0 -24 11t-42 24t-62 24t-83 11t-82.5 -11t-58.5 -31
t-34.5 -47t-11.5 -59q0 -44 20 -74t53 -52t75 -39t85.5 -34t85.5 -37.5t75 -49.5t53 -69.5t20 -97.5z" />
    <glyph glyph-name="t" unicode="t" horiz-adv-x="673" 
d="M603 74q0 -21 -3.5 -34t-11 -20.5t-22 -14t-33.5 -11t-40 -7t-41 -2.5q-67 0 -114 18t-77 54.5t-43.5 92.5t-13.5 132v563h-135q-14 0 -22 12.5t-8 37.5q0 13 2 22.5t6 16t9.5 9.5t12.5 3h135v222q0 6 2.5 11t9.5 8.5t18.5 5t28.5 1.5q18 0 29.5 -1.5t18 -5t9.5 -8.5
t3 -11v-222h250q7 0 12.5 -3t9.5 -9.5t6 -16t2 -22.5q0 -25 -8.5 -37.5t-21.5 -12.5h-250v-547q0 -103 29.5 -157t107.5 -54q24 0 43.5 5t34.5 11t25.5 11t18.5 5q5 0 9 -2t6.5 -7.5t4 -14t1.5 -21.5z" />
    <glyph glyph-name="u" unicode="u" horiz-adv-x="1064" 
d="M897 20q0 -6 -2.5 -11t-9.5 -8t-18 -5t-27 -2q-18 0 -29 2t-17 5t-8.5 8t-2.5 11v128q-78 -87 -152.5 -126t-148.5 -39q-89 0 -150 30t-98.5 81.5t-54 119.5t-16.5 164v547q0 6 2.5 11t9.5 8.5t18.5 5t28.5 1.5q18 0 29.5 -1.5t18 -5t9.5 -8.5t3 -11v-536q0 -84 13 -137
t39 -90.5t66.5 -58t94.5 -20.5q69 0 137.5 49t145.5 144v649q0 6 2.5 11t9.5 8.5t18.5 5t29.5 1.5q17 0 28.5 -1.5t18 -5t9.5 -8.5t3 -11v-905z" />
    <glyph glyph-name="v" unicode="v" horiz-adv-x="901" 
d="M860 927q0 -3 -0.5 -6.5t-1 -6.5t-1.5 -6.5t-2 -6.5l-328 -881q-3 -8 -9 -13t-15 -8t-21.5 -4t-29.5 -1t-30 1.5t-22 4.5t-15 8t-9 12l-328 881q-3 8 -4.5 13t-2 8t-0.5 5q0 7 3 12t9.5 7.5t17.5 3.5t27 1q22 0 35 -1.5t20.5 -4.5t11 -8t6.5 -12l283 -790l2 -5l2 5
l278 790q2 7 6 12t11.5 8t20 4.5t32.5 1.5q16 0 26.5 -1t16.5 -4t8.5 -7.5t2.5 -11.5z" />
    <glyph glyph-name="w" unicode="w" horiz-adv-x="1431" 
d="M1368 927q0 -5 -1.5 -11.5t-3.5 -14.5l-280 -881q-2 -8 -7.5 -13t-14.5 -8t-23.5 -4t-34.5 -1q-21 0 -36 1.5t-24.5 4.5t-15 8t-7.5 12l-210 714l-2 8l-2 -8l-196 -714q-2 -8 -8 -13t-16.5 -8t-25.5 -4t-34 -1q-20 0 -34 1.5t-23.5 4.5t-14.5 8t-7 12l-278 881
q-3 7 -4.5 14t-1.5 12q0 7 3 12t10 7.5t18 3.5t27 1q21 0 34 -1.5t19.5 -4.5t9.5 -8t5 -12l239 -790l2 -7l2 7l217 790q2 7 5.5 12t10 8t18 4.5t29.5 1.5q17 0 28 -1.5t18 -4.5t10 -8t5 -12l234 -790l2 -7l1 7l238 790q2 7 5.5 12t10.5 8t19.5 4.5t32.5 1.5q16 0 26 -1
t16 -4t8 -7.5t2 -11.5z" />
    <glyph glyph-name="x" unicode="x" horiz-adv-x="857" 
d="M799 39q8 -12 8.5 -20.5t-6.5 -14t-21.5 -8t-36.5 -2.5q-21 0 -33.5 1.5t-20 4.5t-12 8t-8.5 11l-244 378l-243 -378q-4 -6 -8.5 -11t-12.5 -8t-20.5 -4.5t-32.5 -1.5q-21 0 -35 2.5t-20.5 8t-6 14t9.5 20.5l298 439l-284 429q-8 12 -8.5 20.5t7 14t22.5 7.5t37 2
q21 0 33.5 -1.5t19.5 -4.5t11 -7.5t8 -10.5l230 -354l236 354q4 6 8 10.5t10.5 7.5t18 4.5t31.5 1.5q21 0 35.5 -2t21.5 -7t6.5 -13.5t-9.5 -21.5l-286 -425z" />
    <glyph glyph-name="y" unicode="y" horiz-adv-x="903" 
d="M519 0l-126 -339q-5 -11 -21 -18.5t-51 -7.5q-18 0 -30 2t-18.5 7.5t-7.5 14t4 20.5l128 321q-8 3 -14 10t-8 14l-329 883q-5 14 -5 22.5t5.5 13.5t18 6.5t33.5 1.5q22 0 35 -1.5t20.5 -4.5t11 -8t6.5 -12l283 -790h4l278 790q5 14 13.5 18.5t22.5 6t34 1.5q19 0 31.5 -2
t18.5 -7t6 -13.5t-5 -21.5z" />
    <glyph glyph-name="z" unicode="z" horiz-adv-x="806" 
d="M714 52q0 -13 -2.5 -23t-6.5 -16.5t-10 -9.5t-13 -3h-539q-18 0 -30.5 12t-12.5 40v28q0 11 2 20t6 19t10.5 21.5t16.5 26.5l430 675h-422q-14 0 -23 12.5t-9 39.5q0 13 2.5 23t6.5 16.5t10 9.5t13 3h500q9 0 17 -3t13.5 -9t9 -16t3.5 -24v-23q0 -10 -1.5 -20t-5.5 -20.5
t-11 -23t-17 -28.5l-429 -675h460q7 0 13 -3t10 -9.5t6.5 -16.5t2.5 -23z" />
    <glyph glyph-name="braceleft" unicode="{" horiz-adv-x="612" 
d="M552 -267q0 -11 -2 -19.5t-6 -13.5t-9.5 -8t-11.5 -3q-14 -2 -23.5 -2h-24.5q-61 0 -99 20t-59.5 59.5t-29 99.5t-7.5 161v224q0 72 -8.5 116.5t-26.5 77.5t-46 53t-67 23q-9 1 -14.5 4t-8.5 8t-4 12.5t-1 16.5q0 10 1 17.5t4 12.5t8.5 7.5t14.5 3.5q76 8 112 74.5
t36 195.5v179q0 100 8 160t30 100t60 60t97 20h23t23 -2q7 0 13 -3t10 -8t6 -13.5t2 -19.5q0 -12 -2 -20.5t-6 -14.5t-10 -8.5t-13 -2.5h-43q-24 0 -41 -9t-28 -35t-16.5 -72.5t-5.5 -141.5v-158q0 -72 -7 -122.5t-25 -91.5t-49 -70t-80 -38q49 -9 80 -38t49 -70t25 -91.5
t7 -122.5v-203q0 -95 5.5 -141.5t16.5 -72.5t28 -35t41 -9h45q6 0 11.5 -2.5t9.5 -8.5t6 -14.5t2 -20.5z" />
    <glyph glyph-name="bar" unicode="|" horiz-adv-x="927" 
d="M519 -339q0 -6 -2.5 -11t-9 -8.5t-17.5 -5t-27 -1.5t-26.5 1.5t-17 5t-9 8.5t-2.5 11v1741q0 6 2.5 11t9 8t17 5t26.5 2t27 -2t17.5 -5t9 -8t2.5 -11v-1741z" />
    <glyph glyph-name="braceright" unicode="}" horiz-adv-x="612" 
d="M575 564q0 -11 -1.5 -18t-4.5 -12t-8.5 -7.5t-13.5 -3.5q-44 -3 -72.5 -29.5t-45.5 -68t-23.5 -93.5t-6.5 -126v-179q0 -100 -8.5 -160t-30 -100t-59.5 -60t-97 -20h-23.5t-26.5 2q-6 0 -11.5 3t-9.5 8t-6.5 13.5t-2.5 19.5q0 12 2.5 20.5t6.5 14.5t9.5 8.5t11.5 2.5h46
q24 0 41 9t28 35t16.5 72.5t5.5 141.5v158q0 72 7 129.5t25 107t49.5 85.5t79.5 45q-48 9 -79.5 30.5t-49.5 54.5t-25 76.5t-7 115.5v203q0 95 -5.5 141.5t-16.5 72.5t-28 35t-41 9h-42q-9 0 -15 2.5t-10.5 8.5t-6.5 14.5t-2 20.5q0 11 2 19.5t6.5 13.5t10.5 8t15 3
q14 2 22.5 2h23.5q60 0 98 -20t59.5 -59.5t29.5 -99.5t8 -161v-224q0 -72 8.5 -109t26.5 -61.5t46 -37t67 -16.5q8 0 13.5 -3t8.5 -8.5t4.5 -12.5t1.5 -16z" />
    <glyph glyph-name="asciitilde" unicode="~" horiz-adv-x="1020" 
d="M960 1018q-3 -61 -25 -108t-56.5 -79t-78.5 -48.5t-90 -16.5q-50 0 -86 12t-63.5 31.5t-48 44t-38.5 48t-35 44.5t-36.5 37t-43 25.5t-53.5 9.5q-39 0 -66 -16t-43.5 -42.5t-24 -60.5t-7.5 -70q0 -17 -13.5 -21.5t-38.5 -4.5q-15 0 -25 1.5t-15.5 4.5t-7.5 7.5t-2 10.5
v26q0 63 18 112t51 82t79 50t102 17q49 0 85.5 -11.5t64 -30.5t48.5 -43t38.5 -47.5t34 -44.5t36 -37t43 -26t54.5 -10q38 0 64.5 15t43.5 41t25 60.5t8 74.5q0 14 12.5 19t37.5 5q15 0 25 -1.5t16.5 -4.5t9 -8t1.5 -12v-35z" />
    <glyph glyph-name="exclamdown" unicode="&#xa1;" horiz-adv-x="667" 
d="M242.052 832.042q0 5.99902 2.5 10.999q2.49902 4.99902 8.99902 8.49902q6.49902 3.49902 16.998 4.99902q10.498 1.5 25.4961 1.5t25.4971 -1.5t16.998 -4.99902q6.49902 -3.5 8.99902 -8.49902q2.5 -5 2.5 -10.999l12.998 -978.88q0 -11.999 -2.5 -20.498
q-2.49902 -8.49902 -9.99805 -13.998q-7.5 -5.5 -20.498 -7.49902q-12.998 -2 -33.9961 -2q-19.9971 0 -32.9961 2.5q-12.998 2.49902 -20.4971 7.99902q-7.49902 5.49902 -10.499 13.498q-2.99902 7.99902 -2.99902 19.998zM211.056 1088.01q0 27.9971 3.5 46.4941
q3.49902 18.498 13.498 29.4971q9.99902 10.998 26.4971 15.498q16.498 4.49902 41.4941 4.49902q25.9971 0 42.4951 -4.49902q16.498 -4.5 25.9971 -15.498q9.49902 -10.999 12.998 -29.4971q3.5 -18.4971 3.5 -46.4941q0 -27.9961 -3.5 -46.9941
q-3.49902 -18.998 -12.998 -29.4961q-9.49902 -10.499 -25.9971 -14.998q-16.498 -4.5 -42.4951 -4.5q-24.9961 0 -41.4941 4.5q-16.498 4.49902 -26.4971 14.998q-9.99902 10.498 -13.498 29.4961q-3.5 18.998 -3.5 46.9941z" />
    <glyph glyph-name="cent" unicode="&#xa2;" horiz-adv-x="1020" 
d="M890 324q0 -25 -4.5 -39t-16 -25.5t-33.5 -28t-50.5 -31t-63 -26t-75.5 -16.5v-152q0 -6 -2.5 -11t-9 -8.5t-17.5 -5t-27 -1.5t-26.5 1.5t-17 5t-9 8.5t-2.5 11v150q-170 17 -256.5 138.5t-86.5 341.5q0 119 26 207t71.5 148.5t108.5 94t137 43.5v152q0 6 2.5 11t9 8.5
t17 5t26.5 1.5t27 -1.5t17.5 -5t9 -8.5t2.5 -11v-150q30 -3 61 -12t60 -22t54.5 -30t38.5 -29.5t17 -19t7 -14t4 -17.5t1 -23q0 -11 -1.5 -20.5t-5 -16.5t-9 -11t-12.5 -4q-15 0 -34.5 18.5t-51 40t-78 40t-114.5 18.5q-54 0 -102 -20.5t-85 -66.5t-58.5 -120t-21.5 -182
q0 -104 22.5 -176.5t61.5 -117.5t91 -65.5t111 -20.5t103 19t75.5 42t52 42t32.5 19q6 0 10.5 -3.5t7.5 -11t4.5 -18.5t1.5 -25z" />
    <glyph glyph-name="sterling" unicode="&#xa3;" horiz-adv-x="1038" 
d="M945 52q0 -14 -3 -24t-8 -16t-10.5 -9t-11.5 -3h-792q-6 0 -11.5 3t-10.5 9t-8 16t-3 24q0 12 2.5 22t7 16.5t10.5 10t13 3.5h132v508h-132q-6 0 -11.5 2.5t-10.5 8.5t-8 15.5t-3 23.5q0 12 2.5 21.5t7 16t10.5 9.5t13 3h132v135q0 124 28.5 211.5t80 143t122.5 80.5
t155 25q42 0 82 -8t74.5 -21.5t62.5 -31.5t41.5 -31.5t18.5 -20.5t8 -15.5t4 -18t1 -22.5q0 -11 -1.5 -20.5t-5 -16.5t-8.5 -11t-12 -4q-14 0 -34.5 18.5t-52.5 40t-78 40t-110 18.5q-65 0 -113 -22.5t-79.5 -66.5t-47.5 -110t-16 -153v-139h360q7 0 13 -3t10.5 -9.5t7 -16
t2.5 -21.5q0 -14 -3 -23.5t-8 -15.5t-10.5 -8.5t-11.5 -2.5h-360v-508h540q7 0 13 -3.5t10.5 -10t7 -16.5t2.5 -22z" />
    <glyph glyph-name="currency" unicode="&#xa4;" horiz-adv-x="1020" 
d="M781 857q42 -49 63.5 -116t21.5 -148q0 -82 -26.5 -154.5t-77.5 -127.5l150 -211q8 -11 9.5 -20.5t-3.5 -16t-16.5 -10t-30.5 -3.5q-17 0 -29 1t-21 3t-15.5 6t-10.5 10l-118 175q-39 -21 -84 -33t-96 -12q-48 0 -89 8.5t-76 25.5l-119 -177q-4 -6 -10 -10t-15 -6
t-21.5 -3t-29.5 -1q-19 0 -30.5 3.5t-16.5 9.5t-3.5 15t9.5 20l149 210q-50 50 -74.5 123t-24.5 159q0 84 24.5 154t70.5 124l-150 213q-8 11 -9.5 20.5t3.5 16t16.5 10t30.5 3.5q16 0 28.5 -1t21.5 -3t15.5 -6t10.5 -10l118 -175q39 21 86 33t102 12q53 0 98.5 -11
t84.5 -34l119 178q4 6 10 10.5t15 6.5t21.5 3t29.5 1q19 0 30.5 -3.5t16.5 -10.5t3 -16t-9 -20zM753 575q0 58 -13.5 112t-43 95t-76.5 66t-114 25q-61 0 -107 -21t-77 -58.5t-46.5 -88.5t-15.5 -112q0 -63 13 -117t43 -94t78 -62.5t118 -22.5q60 0 105 22.5t75 60.5
t45.5 88.5t15.5 106.5z" />
    <glyph glyph-name="yen" unicode="&#xa5;" horiz-adv-x="1038" 
d="M580 599v-65h291q13 0 20.5 -11.5t7.5 -34.5q0 -27 -9 -37t-19 -10h-291v-176h291q13 0 20.5 -11.5t7.5 -34.5q0 -26 -9 -36.5t-19 -10.5h-291v-153q0 -6 -3 -11t-10 -8t-19 -4.5t-29 -1.5t-29 1.5t-19 4.5t-10 8t-3 11v153h-291q-10 0 -19 10.5t-9 36.5q0 23 8.5 34.5
t19.5 11.5h291v176h-291q-10 0 -19 10t-9 37q0 23 8.5 34.5t19.5 11.5h291v65l-384 654q-8 14 -9 23t6 14.5t21.5 7.5t37.5 2q19 0 31.5 -1.5t20.5 -4.5t13 -8t9 -12l171 -301q38 -66 75 -136t75 -142q38 72 74 142t74 136l169 301q3 6 7 11t11 8t19.5 5t32.5 2
q22 0 36 -2.5t20 -7.5t4.5 -14.5t-8.5 -22.5z" />
    <glyph glyph-name="brokenbar" unicode="&#xa6;" horiz-adv-x="1020" 
d="M564 753q0 -6 -2.5 -11t-9 -8.5t-17.5 -5t-27 -1.5t-27 1.5t-17.5 5t-9 8.5t-2.5 11v673q0 6 2.5 11t9 8t17.5 5t27 2t27 -2t17.5 -5t9 -8t2.5 -11v-673zM564 -371q0 -6 -2.5 -11t-9 -8t-17.5 -5t-27 -2t-27 2t-17.5 5t-9 8t-2.5 11v686q0 6 2.5 11t9 8.5t17.5 5t27 1.5
t27 -1.5t17.5 -5t9 -8.5t2.5 -11v-686z" />
    <glyph glyph-name="section" unicode="&#xa7;" horiz-adv-x="1020" 
d="M894 538q0 -39 -12.5 -78t-35 -74.5t-54 -66.5t-69.5 -54q38 -36 57 -80.5t19 -102.5q0 -66 -25 -118.5t-70.5 -89t-108 -55.5t-137.5 -19q-50 0 -93 9.5t-76.5 22t-56 26.5t-29 20.5t-9.5 11.5t-5 12.5t-3 16.5t-1 20q0 12 2 22t5 17t8 11t11 4q14 0 32.5 -14t48 -30.5
t73 -30.5t106.5 -14q43 0 80.5 10t65 30.5t43 51.5t15.5 74q0 40 -11 69.5t-35 53.5t-61.5 44t-89.5 41l-87 35q-58 23 -105 50.5t-80.5 63t-52 81.5t-18.5 108q0 39 12.5 78t35.5 74.5t55 66.5t70 53q-39 38 -58.5 85t-19.5 112q0 57 21.5 104t61.5 80.5t96 52t125 18.5
q36 0 69.5 -6t61 -15.5t48 -21t27.5 -17.5t9.5 -11t4.5 -12t3 -16t1 -21t-1.5 -21.5t-4.5 -16.5t-7.5 -10.5t-10.5 -3.5q-8 0 -22 11t-38 24.5t-60 25t-86 11.5q-47 0 -80 -13.5t-54 -34.5t-30.5 -47.5t-9.5 -52.5q0 -43 11.5 -74.5t35.5 -56t61 -45t89 -41.5l87 -35
q58 -24 105 -51t80.5 -62.5t52 -81.5t18.5 -107zM771 532q0 78 -46.5 125.5t-144.5 85.5l-87 36q-28 11 -52.5 23t-47.5 25q-70 -31 -102.5 -87.5t-32.5 -118.5q0 -39 11.5 -69.5t35 -55.5t59.5 -46t85 -40l87 -35q28 -11 52.5 -23t47.5 -26q70 31 102.5 88t32.5 118z" />
    <glyph glyph-name="dieresis" unicode="&#xa8;" horiz-adv-x="779" 
d="M297 1211q0 -46 -16 -62t-59 -16t-58.5 15.5t-15.5 61.5q0 47 16 63t58 16q44 0 59.5 -16t15.5 -62zM631 1211q0 -46 -16 -62t-59 -16t-58.5 15.5t-15.5 61.5q0 47 16 63t58 16q44 0 59.5 -16t15.5 -62zM0 946z" />
    <glyph glyph-name="copyright" unicode="&#xa9;" horiz-adv-x="1709" 
d="M864 76q159 0 265 48.5t169.5 134t90.5 201.5t27 250q0 141 -30.5 252t-98.5 187.5t-177 117t-266 40.5q-138 0 -241.5 -39t-172.5 -118t-103 -198t-34 -279q0 -146 32 -257.5t100.5 -187t177 -114t261.5 -38.5zM1524 719q0 -192 -43.5 -331t-128.5 -229t-209.5 -133
t-287.5 -43q-168 0 -294 42.5t-209.5 128t-125 213t-41.5 297.5q0 186 41 324t124.5 229.5t209 137t293.5 45.5q177 0 303.5 -46t208.5 -133.5t120.5 -214t38.5 -287.5zM1137 399q0 -11 -1 -20t-3.5 -16t-5.5 -12.5t-12.5 -15t-34.5 -26.5t-58 -31.5t-73.5 -23.5t-86.5 -9
q-88 0 -155.5 28.5t-113 84.5t-69 138t-23.5 190q0 119 28.5 204.5t78.5 140t117.5 80.5t145.5 26q40 0 76.5 -8t68 -21t57.5 -30t38 -29t15.5 -17.5t6 -12.5t3.5 -16t1 -19q0 -11 -2 -19.5t-5 -14.5t-7.5 -9t-10.5 -3q-17 0 -36 16t-46.5 35t-67.5 35t-100 16
q-118 0 -181.5 -89.5t-63.5 -260.5q0 -89 17 -154t50 -108t80.5 -64t108.5 -21q55 0 94.5 17t68 37t47.5 37t33 17q5 0 9 -3t6.5 -9.5t4 -16.5t1.5 -23z" />
    <glyph glyph-name="ordfeminine" unicode="&#xaa;" horiz-adv-x="808" 
d="M645 643q0 -5 -3 -8.5t-9 -6t-15.5 -4t-22.5 -1.5q-15 0 -25 1.5t-16 4t-8.5 6t-2.5 8.5v62h-2q-40 -45 -90.5 -69t-109.5 -24q-49 0 -89 13t-68.5 37.5t-44 60.5t-15.5 83q0 52 21.5 91.5t60.5 65t94 38.5t123 13h104v46q0 36 -8 63.5t-26 46t-47.5 28t-72.5 9.5
q-37 0 -69.5 -10t-57.5 -21.5t-41.5 -21.5t-22.5 -10q-13 0 -20.5 14t-7.5 40q0 10 1.5 17.5t5 13t9.5 10.5t34.5 19.5t77.5 29.5t111 15q71 0 119 -18t77.5 -49.5t42.5 -75t13 -94.5v-423zM651 404q0 -26 -8 -37t-24 -11h-471q-15 0 -23 11t-8 37q0 28 8 39t23 11h471
q16 0 24 -11t8 -39zM527 929h-101q-47 0 -80.5 -8t-55.5 -23.5t-32.5 -37t-10.5 -48.5q0 -51 31 -79t85 -28q24 0 44 5t39 15.5t38.5 27.5t42.5 41v135z" />
    <glyph glyph-name="guillemotleft" unicode="&#xab;" horiz-adv-x="1020" 
d="M829 163q6 -8 6 -14.5t-5.5 -11t-17.5 -7t-31 -2.5t-30.5 0.5t-19 3t-12 6.5t-9.5 12l-219 330q-14 21 -14 39.5t14 38.5l219 330q5 7 9.5 11.5t12 7t19 3t30.5 0.5t31 -2.5t17.5 -7t5.5 -11t-6 -14.5l-228 -356zM256 517l220 -367q6 -9 7 -16.5t-3.5 -13t-15.5 -8.5
t-30 -3q-18 0 -29 0.5t-18.5 3t-12 7t-9.5 12.5l-219 346q-14 23 -14 42t14 40l219 347q5 7 9.5 11.5t12 7t18.5 3t29 0.5q19 0 30 -2.5t16 -8t4.5 -12.5t-6.5 -16z" />
    <glyph glyph-name="logicalnot" unicode="&#xac;" horiz-adv-x="1020" 
d="M916 345q0 -7 -3.5 -12.5t-10.5 -9t-18 -5t-27 -1.5q-15 0 -26 1.5t-18 5t-10.5 9t-3.5 12.5v163h-697q-8 0 -14 3.5t-10 10.5t-6.5 18t-2.5 25t2.5 24.5t6.5 17.5t10 10.5t14 3.5h751q36 0 49.5 -10.5t13.5 -45.5v-220z" />
    <glyph glyph-name="registered" unicode="&#xae;" horiz-adv-x="1038" 
d="M897 1022q0 -80 -29.5 -149.5t-80.5 -121t-120.5 -81t-149.5 -29.5q-83 0 -152 28.5t-118.5 79t-77.5 120t-28 151.5q0 80 29.5 149.5t80.5 120.5t120.5 80.5t149.5 29.5q83 0 152 -28.5t119 -79t77.5 -119.5t27.5 -151zM823 1016q0 72 -23 131t-63.5 101t-96 64.5
t-119.5 22.5q-69 0 -125.5 -25t-96.5 -67.5t-62 -98.5t-22 -119q0 -72 23 -131t63.5 -101t95.5 -64.5t120 -22.5q70 0 126.5 25t96.5 67.5t61.5 98.5t21.5 119zM695 829q0 -4 -1 -7t-6 -4.5t-14.5 -2.5t-26.5 -1q-14 0 -23.5 1t-15.5 3.5t-9.5 6.5t-5.5 11l-22 71
q-13 40 -32 56t-57 16h-28v-148q0 -9 -7 -13t-34 -4q-28 0 -36 4t-8 13v369q0 19 9.5 30.5t29.5 11.5h107q42 0 72.5 -8t50.5 -23.5t29.5 -38t9.5 -50.5q0 -49 -26.5 -75.5t-70.5 -37.5q24 -8 45 -27.5t37 -58.5l26 -68q7 -21 7 -26zM584 1112q0 12 -3.5 22.5t-12.5 18.5
t-24.5 12.5t-39.5 4.5h-50v-122h48q47 0 64.5 17.5t17.5 46.5z" />
    <glyph glyph-name="macron" unicode="&#xaf;" horiz-adv-x="812" 
d="M638 1277q6 0 11 -3t8 -9t5 -15.5t2 -22.5q0 -12 -2 -21t-5 -15.5t-8 -10t-11 -3.5h-462q-7 0 -12 3.5t-8.5 10t-5.5 15.5t-2 21q0 13 2 22.5t5.5 15.5t8.5 9t12 3h462zM0 946z" />
    <glyph glyph-name="macron" unicode="&#x2c9;" horiz-adv-x="812" 
d="M638 1277q6 0 11 -3t8 -9t5 -15.5t2 -22.5q0 -12 -2 -21t-5 -15.5t-8 -10t-11 -3.5h-462q-7 0 -12 3.5t-8.5 10t-5.5 15.5t-2 21q0 13 2 22.5t5.5 15.5t8.5 9t12 3h462zM0 946z" />
    <glyph glyph-name="degree" unicode="&#xb0;" horiz-adv-x="690" 
d="M571 1137q0 -46 -17.5 -86.5t-48.5 -70.5t-73 -47t-91 -17q-47 0 -87.5 15.5t-70.5 43t-47 67t-17 87.5q0 49 18 89.5t49 69t73 45t90 16.5q47 0 87.5 -15.5t70.5 -43t47 -66.5t17 -87zM471 1133q0 29 -10 54t-27 43t-40.5 28t-50.5 10q-26 0 -49 -10t-40 -28t-27 -42.5
t-10 -52.5q0 -31 10 -56.5t27.5 -43.5t41.5 -28t51 -10q25 0 48 10.5t39.5 29t26.5 43t10 53.5zM0 1294z" />
    <glyph glyph-name="plusminus" unicode="&#xb1;" horiz-adv-x="1020" 
d="M940 701q0 -29 -10 -43.5t-25 -14.5h-338v-378q0 -6 -3 -10.5t-10 -8t-17.5 -5.5t-26.5 -2q-15 0 -26 2t-18 5.5t-10.5 8t-3.5 10.5v378h-337q-15 0 -25 14.5t-10 43.5q0 13 2.5 23.5t7.5 17.5t11 10.5t14 3.5h337v379q0 7 3.5 12t10.5 9t18 6t26 2q16 0 26.5 -2t17.5 -6
t10 -9t3 -12v-379h338q7 0 13.5 -3.5t11.5 -10.5t7.5 -17.5t2.5 -23.5zM938 56q0 -16 -3 -27t-8 -17.5t-10.5 -9t-11.5 -2.5h-786q-6 0 -12 2.5t-11 9t-8 17.5t-3 27q0 15 2.5 25.5t7 17.5t11 10.5t13.5 3.5h786q7 0 13 -3.5t10.5 -10.5t7 -17.5t2.5 -25.5z" />
    <glyph glyph-name="uni00B2" unicode="&#xb2;" horiz-adv-x="686" 
d="M603 773q0 -21 -6 -34.5t-19 -13.5h-461q-8 0 -14.5 2t-11 7t-7 13t-2.5 21q0 11 1 19t4 15.5t7.5 14t11.5 14.5l165 161q58 56 93 100.5t54 80.5t24.5 66t5.5 57q0 52 -36.5 86t-103.5 34q-40 0 -71.5 -10.5t-55 -22.5t-39.5 -22.5t-23 -10.5q-4 0 -8 3t-7 9t-4.5 14.5
t-1.5 19.5q0 17 3 29t11.5 20.5t28.5 20.5t48 22.5t62 17.5t72 7q61 0 106.5 -16.5t75.5 -44.5t44.5 -66t14.5 -81q0 -35 -6.5 -70t-29 -78t-65 -95.5t-114.5 -121.5l-125 -119h354q11 0 18 -13.5t7 -34.5z" />
    <glyph glyph-name="uni00B3" unicode="&#xb3;" horiz-adv-x="684" 
d="M588 944q0 -52 -19 -94.5t-55.5 -72.5t-91 -46.5t-124.5 -16.5q-48 0 -86.5 6.5t-65.5 15.5t-43 17.5t-19.5 12t-6 8t-4 10.5t-2.5 15.5t-1 23.5q0 18 5 31.5t16 13.5q6 0 22.5 -9.5t43 -20.5t62 -20.5t78.5 -9.5q84 0 129 33.5t45 94.5q0 33 -14 59t-41 44t-66 27t-90 9
h-78q-6 0 -10.5 3t-8 9.5t-5.5 15.5t-2 21q0 11 2 19t5.5 13.5t8 8.5t10.5 3h72q88 0 137.5 37t49.5 104q0 51 -33 81t-100 30q-38 0 -71 -10t-58.5 -22.5t-42.5 -22.5t-23 -10q-10 0 -14 10.5t-4 34.5q0 10 1 17.5t2.5 13.5t4 10t8.5 10t28 17.5t51 21t62.5 16.5t66.5 7
q60 0 104.5 -14t73.5 -39.5t43 -60.5t14 -77q0 -74 -41 -124.5t-118 -64.5v-2q40 -3 75 -17.5t61.5 -39.5t41.5 -58t15 -72z" />
    <glyph glyph-name="acute" unicode="&#xb4;" horiz-adv-x="588" 
d="M302 1366q6 10 13 17t16.5 10.5t23 5t32.5 1.5t31 -3t17 -8.5t3.5 -13t-8.5 -16.5l-174 -234q-7 -10 -12.5 -15.5t-12.5 -8.5t-17 -4t-25 -1t-24.5 2.5t-13 7t-2.5 11.5t7 16z" />
    <glyph glyph-name="mu" unicode="&#xb5;" horiz-adv-x="1111" 
d="M1085 59q0 -23 -3 -35.5t-8.5 -17.5t-14.5 -8.5t-23 -6.5t-28.5 -4.5t-32.5 -1.5q-83 0 -128.5 37.5t-56.5 127.5q-78 -87 -154 -126t-150 -39q-65 0 -117.5 18.5t-88.5 63.5q1 -19 2 -42.5t2 -48t1.5 -49t0.5 -44.5v-222q0 -6 -3 -11t-9.5 -8.5t-18 -5t-29.5 -1.5
q-17 0 -28.5 1.5t-18.5 5t-9.5 8.5t-2.5 11v1264q0 6 2.5 11t9.5 8.5t18.5 5t28.5 1.5q18 0 29.5 -1.5t18 -5t9.5 -8.5t3 -11v-580q0 -123 55 -191.5t158 -68.5q69 0 137.5 48t145.5 143v649q0 6 3 11t9.5 8.5t18 5t29.5 1.5q17 0 28.5 -1.5t18 -5t9.5 -8.5t3 -11v-675
q0 -46 4 -77t13.5 -50t26 -27.5t41.5 -8.5q18 0 31 2t22.5 4.5t16.5 4.5t14 2q3 0 6 -1.5t5 -6t3 -12.5t1 -21z" />
    <glyph glyph-name="paragraph" unicode="&#xb6;" horiz-adv-x="1187" 
d="M997 -206q0 -6 -3 -11t-9.5 -8t-18 -5t-28.5 -2t-28.5 2t-18.5 5t-9.5 8t-2.5 11v1396h-210v-1396q0 -6 -3 -11t-9.5 -8t-18 -5t-28.5 -2q-35 0 -47 7t-12 19v755q-104 0 -184.5 25t-135 72.5t-82.5 116t-28 155.5q0 79 28 147.5t82 119.5t134.5 80t205.5 29h371
q28 0 41.5 -17t13.5 -42v-1441z" />
    <glyph glyph-name="periodcentered" unicode="&#xb7;" horiz-adv-x="501" 
d="M336 577q0 -59 -19 -78t-68 -19q-47 0 -65.5 18.5t-18.5 76.5q0 59 19 78t68 19q47 0 65.5 -18.5t18.5 -76.5z" />
    <glyph glyph-name="periodcentered" unicode="&#x2219;" horiz-adv-x="501" 
d="M336 577q0 -59 -19 -78t-68 -19q-47 0 -65.5 18.5t-18.5 76.5q0 59 19 78t68 19q47 0 65.5 -18.5t18.5 -76.5z" />
    <glyph glyph-name="cedilla" unicode="&#xb8;" horiz-adv-x="634" 
d="M443 -78q23 -49 33 -78.5t10 -54.5q0 -34 -12.5 -62.5t-36.5 -48.5t-58.5 -31.5t-78.5 -11.5q-30 0 -58 3.5t-49.5 8t-28.5 7.5t-10 8t-4.5 12t-1.5 18q0 26 6 33.5t18 7.5h128q35 0 55 14.5t20 44.5q0 14 -7 35.5t-18 46.5l-57 126h115z" />
    <glyph glyph-name="uni00B9" unicode="&#xb9;" horiz-adv-x="497" 
d="M354 740q0 -6 -3.5 -10t-11 -6.5t-18 -3.5t-24.5 -1t-23.5 1t-16 3.5t-9.5 6.5t-3 10v658l-165 -91q-12 -7 -20 -8t-12.5 3t-6.5 13t-2 22q0 11 1 19t3 14t6 10.5t10 8.5l193 115q3 1 8 2.5t11.5 2.5t15 1.5t19.5 0.5q15 0 24.5 -1.5t15 -3.5t7 -5t1.5 -7v-754z" />
    <glyph glyph-name="ordmasculine" unicode="&#xba;" horiz-adv-x="851" 
d="M742 964q0 -77 -21 -142t-61 -111.5t-99.5 -72.5t-135.5 -26q-82 0 -142 23.5t-99 68t-57.5 108.5t-18.5 145q0 77 20 141t60 110.5t100.5 72.5t141.5 26q77 0 135.5 -24.5t97.5 -69t59 -108t20 -141.5zM706 404q0 -26 -8 -37t-24 -11h-499q-15 0 -23 11t-8 37q0 28 8 39
t23 11h499q16 0 24 -11t8 -39zM616 957q0 49 -9.5 94.5t-31.5 80t-58.5 55t-91.5 20.5q-50 0 -86 -18.5t-59 -51t-34.5 -77.5t-11.5 -98q0 -52 9 -97.5t31 -79.5t59 -53.5t92 -19.5q46 0 82 15.5t60 46t36.5 76.5t12.5 107z" />
    <glyph glyph-name="guillemotright" unicode="&#xbb;" horiz-adv-x="1020" 
d="M654 132q-5 -8 -9.5 -12.5t-11.5 -7t-18 -3t-29 -0.5q-19 0 -30 2.5t-16.5 8t-4.5 12.5t6 16l223 373l-221 367q-6 9 -7 16.5t4 13t16 8.5t30 3q18 0 29 -0.5t18 -3t11.5 -7t9.5 -11.5l219 -347q14 -23 14 -42t-14 -40zM310 150q-5 -8 -9.5 -12t-12 -6.5t-19 -3
t-30.5 -0.5q-20 0 -32 2.5t-17.5 7t-5 11t6.5 14.5l228 356l-228 356q-6 8 -6.5 14.5t5 11t17.5 7t32 2.5q19 0 30.5 -0.5t19 -3t12 -7t9.5 -11.5l218 -330q14 -21 14 -39.5t-14 -38.5z" />
    <glyph glyph-name="onequarter" unicode="&#xbc;" horiz-adv-x="1279" 
d="M1196 184q0 -21 -5.5 -34t-16.5 -13h-80v-122q0 -5 -3 -9t-9.5 -6.5t-16.5 -4t-25 -1.5q-14 0 -24 1.5t-16 4t-9 6.5t-3 9v122h-291q-6 0 -11 2t-8 7.5t-5 15.5t-2 25q0 13 0.5 22t2 16.5t4.5 14t8 14.5l252 380q3 4 9 7.5t15 6t22 4t30 1.5q21 0 36 -1.5t25 -4
t14.5 -6.5t4.5 -9v-406h80q10 0 16 -10t6 -32zM988 554h-2l-220 -328h222v328zM224 -17q-4 -6 -9.5 -9.5t-13.5 -6t-18.5 -3.5t-25.5 -1q-16 0 -26 3.5t-14 10t-3 15t8 19.5l888 1303q4 6 9.5 10t13.5 6.5t18.5 3.5t25.5 1q16 0 26 -3.5t14.5 -10t3 -15.5t-8.5 -19zM388 662
q0 -6 -3.5 -10t-10.5 -6.5t-17.5 -3.5t-24.5 -1q-13 0 -23 1t-16.5 3.5t-9.5 6.5t-3 10v528l-165 -91q-12 -7 -19.5 -8.5t-12 2.5t-6.5 12.5t-2 21.5q0 11 0.5 20t3 16.5t6.5 12.5t10 9l193 115q3 1 7 2t9 1.5t13 1t19 0.5q15 0 25 -1t16 -3t8.5 -4.5t2.5 -6.5v-628z" />
    <glyph glyph-name="onehalf" unicode="&#xbd;" horiz-adv-x="1353" 
d="M388 662q0 -6 -3.5 -10t-10.5 -6.5t-17.5 -3.5t-24.5 -1q-13 0 -23 1t-16.5 3.5t-9.5 6.5t-3 10v528l-165 -91q-12 -7 -19.5 -8.5t-12 2.5t-6.5 12.5t-2 21.5q0 11 0.5 20t3 16.5t6.5 12.5t10 9l193 115q3 1 7 2t9 1.5t13 1t19 0.5q15 0 25 -1t16 -3t8.5 -4.5t2.5 -6.5
v-628zM1251 44q0 -22 -6 -33t-16 -11h-395q-8 0 -13.5 1.5t-9.5 6.5t-6 13.5t-2 22.5q0 13 0.5 22.5t3 17t6.5 14t12 13.5l137 128q42 39 69.5 68.5t44.5 55t24 50.5t7 54q0 44 -30 72t-81 28q-36 0 -63.5 -8t-47.5 -18t-32.5 -18t-18.5 -8q-3 0 -6.5 2.5t-6 8t-4 14.5
t-1.5 22q0 17 2 26t9 16.5t25.5 17.5t43 18.5t54 14t60.5 5.5q52 0 91 -13.5t65 -38t39 -58.5t13 -75q0 -33 -8.5 -65t-29.5 -66.5t-57.5 -74t-91.5 -87.5l-102 -89h298q13 0 18.5 -13t5.5 -36zM224 -17q-4 -6 -9.5 -9.5t-13.5 -6t-18.5 -3.5t-25.5 -1q-16 0 -26 3.5t-14 10
t-3 15t8 19.5l888 1303q4 6 9.5 10t13.5 6.5t18.5 3.5t25.5 1q16 0 26 -3.5t14.5 -10t3 -15.5t-8.5 -19z" />
    <glyph glyph-name="threequarters" unicode="&#xbe;" horiz-adv-x="1353" 
d="M525 829q0 -43 -18 -79t-51 -61.5t-80 -40t-105 -14.5q-31 0 -60 4.5t-53.5 11.5t-42.5 15.5t-24.5 15.5t-9.5 16.5t-3 32.5q0 24 4.5 32.5t12.5 8.5t22 -7.5t35.5 -16.5t51.5 -16.5t72 -7.5q37 0 63.5 9t43 23.5t24.5 32.5t8 37q0 26 -10 46t-31 34t-54 21.5t-79 7.5
h-67q-5 0 -9.5 2.5t-7.5 8t-5 14t-2 20.5t2 20t5 13t7 7.5t9 2.5h63q74 0 114.5 28t40.5 79q0 38 -28.5 64.5t-89.5 26.5q-29 0 -55 -8t-46.5 -18t-34 -18t-18.5 -8q-4 0 -8 2t-7 7.5t-4.5 13.5t-1.5 20q0 8 0.5 14.5t2 12t4 9t7 8t21 14t41 18t55 14.5t64.5 6
q52 0 90.5 -12.5t63.5 -34t37.5 -51.5t12.5 -65q0 -29 -10 -54.5t-28 -46t-43 -35.5t-54 -22q39 -4 69.5 -17t51 -33.5t31.5 -47.5t11 -59zM298 -17q-4 -6 -9.5 -9.5t-13.5 -6t-18.5 -3.5t-25.5 -1q-16 0 -26 3.5t-14 10t-3 15t8 19.5l888 1303q4 6 9.5 10t13.5 6.5
t18.5 3.5t25.5 1q16 0 26 -3.5t14.5 -10t3 -15.5t-8.5 -19zM1270 184q0 -21 -5.5 -34t-16.5 -13h-80v-122q0 -5 -3 -9t-9.5 -6.5t-16.5 -4t-25 -1.5q-14 0 -24 1.5t-16 4t-9 6.5t-3 9v122h-291q-6 0 -11 2t-8 7.5t-5 15.5t-2 25q0 13 0.5 22t2 16.5t4.5 14t8 14.5l252 380
q3 4 9 7.5t15 6t22 4t30 1.5q21 0 36 -1.5t25 -4t14.5 -6.5t4.5 -9v-406h80q10 0 16 -10t6 -32zM1062 554h-2l-220 -328h222v328z" />
    <glyph glyph-name="questiondown" unicode="&#xbf;" horiz-adv-x="949" 
d="M100.104 185.121q0 89.9893 25.9971 159.48t72.4912 117.485t111.486 73.9912t143.982 28.9961l5.99902 266.968q0 12.999 11.999 19.498q11.998 6.49902 42.9941 6.49902q14.998 0 25.9971 -1.5t17.498 -4.99902q6.49902 -3.5 9.49902 -8.49902
q2.99902 -5 2.99902 -10.999l5 -299.963q0 -17.998 -4.5 -29.9971q-4.49902 -11.998 -12.998 -19.4971t-20.998 -10.499q-12.498 -3 -29.4961 -3h-25.9971q-71.9912 0 -121.984 -22.4971q-49.9941 -22.4971 -80.4902 -59.9922t-43.9951 -87.4893
q-13.498 -49.9941 -13.498 -104.987q0 -61.9922 16.998 -113.486q16.998 -51.4932 51.4932 -88.9893q34.4961 -37.4951 86.9893 -57.9932q52.4941 -20.4971 124.485 -20.4971q60.9922 0 107.486 13.498q46.4951 13.499 80.4902 29.9971q33.9961 16.4971 55.4932 29.9961
q21.498 13.498 31.4971 13.498q6.99902 0 12.498 -2.5q5.49902 -2.49902 8.99902 -8.99805q3.49902 -6.5 5.49902 -16.998q2 -10.499 2 -25.4971q0 -17.998 -2.5 -28.4971q-2.5 -10.498 -12.498 -19.9971q-9.99902 -9.49902 -39.4951 -25.4971
q-29.4971 -15.998 -70.4912 -29.9961q-40.9951 -13.998 -89.9893 -23.4971t-99.9883 -9.49902q-100.987 0 -174.479 28.9961q-73.4912 28.9971 -121.485 79.9902q-47.9941 50.9941 -71.4912 119.485q-23.4971 68.4922 -23.4971 147.482zM426.063 1088.01
q0 27.9971 3.5 46.4941q3.49902 18.498 13.498 29.4971q9.99902 10.998 26.4971 15.498q16.498 4.49902 41.4951 4.49902q25.9971 0 42.4941 -4.49902q16.498 -4.5 26.4971 -15.498q9.99902 -10.999 13.498 -29.4971q3.5 -18.4971 3.5 -46.4941q0 -27.9961 -3.5 -46.9941
q-3.49902 -18.998 -13.498 -29.4961q-9.99902 -10.499 -26.4971 -14.998q-16.4971 -4.5 -42.4941 -4.5q-24.9971 0 -41.4951 4.5q-16.498 4.49902 -26.4971 14.998q-9.99902 10.498 -13.498 29.4961q-3.5 18.998 -3.5 46.9941z" />
    <glyph glyph-name="Agrave" unicode="&#xc0;" horiz-adv-x="1154" 
d="M1108 41q6 -15 5.5 -24.5t-7 -14.5t-20 -6.5t-34.5 -1.5t-33.5 1.5t-19.5 4.5t-10.5 8t-6.5 12l-124 345h-568l-119 -343q-2 -7 -6 -12t-11 -8.5t-19.5 -5.5t-31.5 -2q-21 0 -35 2t-20.5 7t-7 14t5.5 24l453 1231q3 8 9 13.5t15.5 8.5t23 4.5t30.5 1.5q18 0 31.5 -1.5
t23 -4.5t15 -8.5t8.5 -13.5zM571 1163h-1l-244 -696h495zM613 1437q7 -9 10 -16t-0.5 -11.5t-13 -7t-26.5 -2.5q-15 0 -25.5 1t-19 4t-16.5 8.5t-18 15.5l-228 219q-8 8 -9.5 15.5t4 13t18.5 9t35 3.5q18 0 31.5 -1t24.5 -4.5t20.5 -10t19.5 -17.5zM118 1294z" />
    <glyph glyph-name="Aacute" unicode="&#xc1;" horiz-adv-x="1154" 
d="M1108 41q6 -15 5.5 -24.5t-7 -14.5t-20 -6.5t-34.5 -1.5t-33.5 1.5t-19.5 4.5t-10.5 8t-6.5 12l-124 345h-568l-119 -343q-2 -7 -6 -12t-11 -8.5t-19.5 -5.5t-31.5 -2q-21 0 -35 2t-20.5 7t-7 14t5.5 24l453 1231q3 8 9 13.5t15.5 8.5t23 4.5t30.5 1.5q18 0 31.5 -1.5
t23 -4.5t15 -8.5t8.5 -13.5zM571 1163h-1l-244 -696h495zM719 1656q10 11 19.5 17.5t20.5 10t25 4.5t32 1q21 0 34 -3.5t18.5 -9t4 -13t-8.5 -15.5l-228 -219q-10 -10 -18 -15.5t-17 -8.5t-19.5 -4t-25.5 -1q-17 0 -26.5 2.5t-12.5 7t-1 11.5t10 16zM367 1294z" />
    <glyph glyph-name="Acircumflex" unicode="&#xc2;" horiz-adv-x="1154" 
d="M1108 41q6 -15 5.5 -24.5t-7 -14.5t-20 -6.5t-34.5 -1.5t-33.5 1.5t-19.5 4.5t-10.5 8t-6.5 12l-124 345h-568l-119 -343q-2 -7 -6 -12t-11 -8.5t-19.5 -5.5t-31.5 -2q-21 0 -35 2t-20.5 7t-7 14t5.5 24l453 1231q3 8 9 13.5t15.5 8.5t23 4.5t30.5 1.5q18 0 31.5 -1.5
t23 -4.5t15 -8.5t8.5 -13.5zM571 1163h-1l-244 -696h495zM593 1689q15 0 25 -1t17.5 -4t13 -7t11.5 -10l224 -234q7 -8 8 -14.5t-3.5 -10.5t-14.5 -6t-25 -2q-23 0 -37 1.5t-22.5 3.5t-13.5 5.5t-10 7.5l-173 191l-179 -185q-8 -8 -15.5 -12.5t-18 -7t-24 -3.5t-33.5 -1
q-19 0 -29.5 2.5t-14.5 6.5t-2 10t10 14l240 234q6 6 12 10t13.5 7t17 4t23.5 1zM128 1294z" />
    <glyph glyph-name="Atilde" unicode="&#xc3;" horiz-adv-x="1154" 
d="M1108 41q6 -15 5.5 -24.5t-7 -14.5t-20 -6.5t-34.5 -1.5t-33.5 1.5t-19.5 4.5t-10.5 8t-6.5 12l-124 345h-568l-119 -343q-2 -7 -6 -12t-11 -8.5t-19.5 -5.5t-31.5 -2q-21 0 -35 2t-20.5 7t-7 14t5.5 24l453 1231q3 8 9 13.5t15.5 8.5t23 4.5t30.5 1.5q18 0 31.5 -1.5
t23 -4.5t15 -8.5t8.5 -13.5zM571 1163h-1l-244 -696h495zM814 1602q0 11 12.5 15.5t39.5 4.5q31 0 39.5 -8t8.5 -33q0 -82 -48.5 -131.5t-136.5 -49.5q-51 0 -89.5 19t-71.5 42t-63 42t-64 19q-47 0 -65 -28t-18 -74q0 -6 -4 -10t-11.5 -6.5t-17 -3t-19.5 -0.5
q-32 0 -40 8.5t-8 32.5q0 42 13.5 76t38 57t58.5 35.5t75 12.5q51 0 89.5 -19t71 -42t62.5 -42t64 -19q39 0 61.5 22.5t22.5 79.5zM113 1294z" />
    <glyph glyph-name="Adieresis" unicode="&#xc4;" horiz-adv-x="1154" 
d="M1108 41q6 -15 5.5 -24.5t-7 -14.5t-20 -6.5t-34.5 -1.5t-33.5 1.5t-19.5 4.5t-10.5 8t-6.5 12l-124 345h-568l-119 -343q-2 -7 -6 -12t-11 -8.5t-19.5 -5.5t-31.5 -2q-21 0 -35 2t-20.5 7t-7 14t5.5 24l453 1231q3 8 9 13.5t15.5 8.5t23 4.5t30.5 1.5q18 0 31.5 -1.5
t23 -4.5t15 -8.5t8.5 -13.5zM571 1163h-1l-244 -696h495zM461 1526q0 -48 -17 -65t-62 -17q-44 0 -60.5 16.5t-16.5 64.5t17 65t61 17q45 0 61.5 -16.5t16.5 -64.5zM862 1526q0 -48 -17 -65t-62 -17q-44 0 -60.5 16.5t-16.5 64.5t17 65t61 17q45 0 61.5 -16.5t16.5 -64.5z
M157 1294z" />
    <glyph glyph-name="Aring" unicode="&#xc5;" horiz-adv-x="1154" 
d="M1108 41q6 -15 5.5 -24.5t-7 -14.5t-20 -6.5t-34.5 -1.5t-33.5 1.5t-19.5 4.5t-10.5 8t-6.5 12l-124 345h-568l-119 -343q-2 -7 -6 -12t-11 -8.5t-19.5 -5.5t-31.5 -2q-21 0 -35 2t-20.5 7t-7 14t5.5 24l453 1231q3 8 9 13.5t15.5 8.5t23 4.5t30.5 1.5q18 0 31.5 -1.5
t23 -4.5t15 -8.5t8.5 -13.5zM571 1163h-1l-244 -696h495zM769 1548q0 -39 -13.5 -73t-38 -58.5t-59.5 -39t-78 -14.5q-47 0 -81 13.5t-56.5 37.5t-33.5 56.5t-11 70.5q0 39 12.5 72.5t37 58t59.5 38.5t80 14q86 0 134 -48t48 -128zM680 1541q0 43 -22.5 74t-73.5 31
q-48 0 -72.5 -27t-24.5 -71q0 -48 22 -77.5t77 -29.5q48 0 71 29t23 71zM250 1294z" />
    <glyph glyph-name="AE" unicode="&#xc6;" horiz-adv-x="1550" 
d="M1431 54q0 -13 -2 -23t-6 -17t-10 -10.5t-13 -3.5h-606q-19 0 -37.5 13.5t-18.5 49.5v273h-477l-174 -316q-4 -7 -9 -12t-14 -8t-22.5 -4.5t-34.5 -1.5q-15 0 -26.5 1t-20 3t-12.5 6.5t-4 10.5q0 5 2.5 11.5t7.5 14.5l697 1225q5 9 12.5 14.5t18 8.5t24 4t30.5 1h654
q8 0 14 -3.5t10 -10.5t6 -17.5t2 -24.5q0 -13 -2 -23t-6 -16.5t-10 -10t-14 -3.5h-530v-456h458q8 0 14 -3.5t10 -10.5t6 -17.5t2 -24.5q0 -13 -2 -23t-6 -17t-10 -10.5t-14 -3.5h-458v-510h540q7 0 13 -3.5t10 -10t6 -17t2 -24.5zM738 1185h-6l-415 -747h421v747z" />
    <glyph glyph-name="Ccedilla" unicode="&#xc7;" horiz-adv-x="1096" 
d="M720 -78q23 -49 33 -78.5t10 -54.5q0 -34 -12.5 -62.5t-36.5 -48.5t-58.5 -31.5t-78.5 -11.5q-30 0 -58 3.5t-49.5 8t-28.5 7.5t-10 8t-4.5 12t-1.5 18q0 26 6 33.5t18 7.5h128q35 0 55 14.5t20 44.5q0 14 -7 35.5t-18 46.5l-52 116q-91 9 -175 49t-151 119t-104.5 198.5
t-37.5 273.5q0 158 40 283.5t112.5 213t174 134t224.5 46.5q58 0 112.5 -11t100.5 -28t82.5 -39t50 -35.5t17 -19.5t5.5 -13.5t3 -17t1 -21.5q0 -14 -1.5 -24.5t-5 -18t-8.5 -11.5t-12 -4q-14 0 -39.5 20.5t-67 45.5t-101.5 45.5t-143 20.5q-91 0 -167 -36.5t-130.5 -107.5
t-85 -175t-30.5 -239q0 -129 28 -229t81 -168.5t131 -104.5t177 -36q76 0 138 20t106 45.5t71.5 46t42.5 20.5q6 0 10 -2.5t6.5 -9t4 -17.5t1.5 -27q0 -11 -1 -20t-3 -16t-5.5 -13t-13 -15.5t-41.5 -31t-81.5 -43t-101.5 -33.5t-99 -15z" />
    <glyph glyph-name="Egrave" unicode="&#xc8;" horiz-adv-x="1001" 
d="M883 54q0 -13 -2 -23t-6.5 -17t-10.5 -10.5t-13 -3.5h-606q-18 0 -37 13.5t-19 49.5v1168q0 36 19 49.5t37 13.5h597q7 0 13 -3.5t10 -10.5t6 -17.5t2 -24.5q0 -13 -2 -23t-6 -16.5t-10 -10t-13 -3.5h-531v-455h458q8 0 14 -3.5t10 -10t6 -17t2 -24.5q0 -13 -2 -22.5
t-6 -15.5t-10 -9t-14 -3h-458v-516h540q7 0 13 -3.5t10.5 -10t6.5 -17t2 -24.5zM567 1437q7 -9 10 -16t-0.5 -11.5t-13 -7t-26.5 -2.5q-15 0 -25.5 1t-19 4t-16.5 8.5t-18 15.5l-228 219q-8 8 -9.5 15.5t4 13t18.5 9t35 3.5q18 0 31.5 -1t24.5 -4.5t20.5 -10t19.5 -17.5z
M72 1294z" />
    <glyph glyph-name="Eacute" unicode="&#xc9;" horiz-adv-x="1001" 
d="M883 54q0 -13 -2 -23t-6.5 -17t-10.5 -10.5t-13 -3.5h-606q-18 0 -37 13.5t-19 49.5v1168q0 36 19 49.5t37 13.5h597q7 0 13 -3.5t10 -10.5t6 -17.5t2 -24.5q0 -13 -2 -23t-6 -16.5t-10 -10t-13 -3.5h-531v-455h458q8 0 14 -3.5t10 -10t6 -17t2 -24.5q0 -13 -2 -22.5
t-6 -15.5t-10 -9t-14 -3h-458v-516h540q7 0 13 -3.5t10.5 -10t6.5 -17t2 -24.5zM682 1656q10 11 19.5 17.5t20.5 10t25 4.5t32 1q21 0 34 -3.5t18.5 -9t4 -13t-8.5 -15.5l-228 -219q-10 -10 -18 -15.5t-17 -8.5t-19.5 -4t-25.5 -1q-17 0 -26.5 2.5t-12.5 7t-1 11.5t10 16z
M330 1294z" />
    <glyph glyph-name="Ecircumflex" unicode="&#xca;" horiz-adv-x="1001" 
d="M883 54q0 -13 -2 -23t-6.5 -17t-10.5 -10.5t-13 -3.5h-606q-18 0 -37 13.5t-19 49.5v1168q0 36 19 49.5t37 13.5h597q7 0 13 -3.5t10 -10.5t6 -17.5t2 -24.5q0 -13 -2 -23t-6 -16.5t-10 -10t-13 -3.5h-531v-455h458q8 0 14 -3.5t10 -10t6 -17t2 -24.5q0 -13 -2 -22.5
t-6 -15.5t-10 -9t-14 -3h-458v-516h540q7 0 13 -3.5t10.5 -10t6.5 -17t2 -24.5zM539 1689q15 0 25 -1t17.5 -4t13 -7t11.5 -10l224 -234q7 -8 8 -14.5t-3.5 -10.5t-14.5 -6t-25 -2q-23 0 -37 1.5t-22.5 3.5t-13.5 5.5t-10 7.5l-173 191l-179 -185q-8 -8 -15.5 -12.5t-18 -7
t-24 -3.5t-33.5 -1q-19 0 -29.5 2.5t-14.5 6.5t-2 10t10 14l240 234q6 6 12 10t13.5 7t17 4t23.5 1zM74 1294z" />
    <glyph glyph-name="Edieresis" unicode="&#xcb;" horiz-adv-x="1001" 
d="M883 54q0 -13 -2 -23t-6.5 -17t-10.5 -10.5t-13 -3.5h-606q-18 0 -37 13.5t-19 49.5v1168q0 36 19 49.5t37 13.5h597q7 0 13 -3.5t10 -10.5t6 -17.5t2 -24.5q0 -13 -2 -23t-6 -16.5t-10 -10t-13 -3.5h-531v-455h458q8 0 14 -3.5t10 -10t6 -17t2 -24.5q0 -13 -2 -22.5
t-6 -15.5t-10 -9t-14 -3h-458v-516h540q7 0 13 -3.5t10.5 -10t6.5 -17t2 -24.5zM415 1526q0 -48 -17 -65t-62 -17q-44 0 -60.5 16.5t-16.5 64.5t17 65t61 17q45 0 61.5 -16.5t16.5 -64.5zM816 1526q0 -48 -17 -65t-62 -17q-44 0 -60.5 16.5t-16.5 64.5t17 65t61 17
q45 0 61.5 -16.5t16.5 -64.5zM111 1294z" />
    <glyph glyph-name="Igrave" unicode="&#xcc;" horiz-adv-x="500" 
d="M311 20q0 -6 -3 -11t-10 -8t-18.5 -5t-29.5 -2q-17 0 -29 2t-19 5t-10 8t-3 11v1254q0 6 3.5 11t11 8t19 5t27.5 2q18 0 29.5 -2t18.5 -5t10 -8t3 -11v-1254zM305 1437q7 -9 10 -16t-0.5 -11.5t-13 -7t-26.5 -2.5q-15 0 -25.5 1t-19 4t-16.5 8.5t-18 15.5l-228 219
q-8 8 -9.5 15.5t4 13t18.5 9t35 3.5q18 0 31.5 -1t24.5 -4.5t20.5 -10t19.5 -17.5zM-190 1294z" />
    <glyph glyph-name="Iacute" unicode="&#xcd;" horiz-adv-x="500" 
d="M311 20q0 -6 -3 -11t-10 -8t-18.5 -5t-29.5 -2q-17 0 -29 2t-19 5t-10 8t-3 11v1254q0 6 3.5 11t11 8t19 5t27.5 2q18 0 29.5 -2t18.5 -5t10 -8t3 -11v-1254zM393 1656q10 11 19.5 17.5t20.5 10t25 4.5t32 1q21 0 34 -3.5t18.5 -9t4 -13t-8.5 -15.5l-228 -219
q-10 -10 -18 -15.5t-17 -8.5t-19.5 -4t-25.5 -1q-17 0 -26.5 2.5t-12.5 7t-1 11.5t10 16zM41 1294z" />
    <glyph glyph-name="Icircumflex" unicode="&#xce;" horiz-adv-x="500" 
d="M311 20q0 -6 -3 -11t-10 -8t-18.5 -5t-29.5 -2q-17 0 -29 2t-19 5t-10 8t-3 11v1254q0 6 3.5 11t11 8t19 5t27.5 2q18 0 29.5 -2t18.5 -5t10 -8t3 -11v-1254zM260 1689q15 0 25 -1t17.5 -4t13 -7t11.5 -10l224 -234q7 -8 8 -14.5t-3.5 -10.5t-14.5 -6t-25 -2
q-23 0 -37 1.5t-22.5 3.5t-13.5 5.5t-10 7.5l-173 191l-179 -185q-8 -8 -15.5 -12.5t-18 -7t-24 -3.5t-33.5 -1q-19 0 -29.5 2.5t-14.5 6.5t-2 10t10 14l240 234q6 6 12 10t13.5 7t17 4t23.5 1zM-205 1294z" />
    <glyph glyph-name="Idieresis" unicode="&#xcf;" horiz-adv-x="500" 
d="M311 20q0 -6 -3 -11t-10 -8t-18.5 -5t-29.5 -2q-17 0 -29 2t-19 5t-10 8t-3 11v1254q0 6 3.5 11t11 8t19 5t27.5 2q18 0 29.5 -2t18.5 -5t10 -8t3 -11v-1254zM129 1526q0 -48 -17 -65t-62 -17q-44 0 -60.5 16.5t-16.5 64.5t17 65t61 17q45 0 61.5 -16.5t16.5 -64.5z
M530 1526q0 -48 -17 -65t-62 -17q-44 0 -60.5 16.5t-16.5 64.5t17 65t61 17q45 0 61.5 -16.5t16.5 -64.5zM-175 1294z" />
    <glyph glyph-name="Eth" unicode="&#xd0;" horiz-adv-x="1262" 
d="M1159 666q0 -163 -41 -287.5t-121.5 -208.5t-198 -127t-280.5 -43h-255q-18 0 -36.5 13.5t-18.5 49.5v556h-143q-8 0 -14 3.5t-10 10.5t-6 17t-2 23q0 14 2 24.5t6 17.5t10 10.5t14 3.5h143v502q0 36 18.5 49.5t36.5 13.5h272q165 0 279 -45t190.5 -127.5t115.5 -198
t39 -257.5zM1027 660q0 113 -28.5 209.5t-87.5 166.5t-150.5 109.5t-233.5 39.5h-197v-456h256q7 0 13 -3.5t10 -10.5t6 -17.5t2 -24.5q0 -13 -2 -23t-6 -17t-10 -10.5t-13 -3.5h-256v-510h200q132 0 223.5 32.5t152 100.5t91 171.5t30.5 246.5z" />
    <glyph glyph-name="Ntilde" unicode="&#xd1;" horiz-adv-x="1307" 
d="M1118 59q0 -18 -5.5 -30t-14 -19.5t-19 -10.5t-19.5 -3h-25q-20 0 -36.5 5t-32 17.5t-31 33.5t-34.5 54l-456 808q-34 59 -68.5 121.5t-65.5 121.5h-1q1 -73 1 -149.5v-149.5v-838q0 -6 -3 -11t-10 -8t-18.5 -5t-29.5 -2q-17 0 -29 2t-19 5t-10 8t-3 11v1211
q0 36 19 49.5t37 13.5h50q24 0 40 -4t29 -13.5t25.5 -27t27.5 -44.5l349 -619q33 -58 62.5 -111.5t57.5 -105t55.5 -101.5t54.5 -101h1q-1 84 -1 175v175v753q0 6 3 11t10 8.5t18.5 5t29.5 1.5q16 0 28 -1.5t19 -5t10.5 -8.5t3.5 -11v-1211zM883 1602q0 11 12.5 15.5
t39.5 4.5q31 0 39.5 -8t8.5 -33q0 -82 -48.5 -131.5t-136.5 -49.5q-51 0 -89.5 19t-71.5 42t-63 42t-64 19q-47 0 -65 -28t-18 -74q0 -6 -4 -10t-11.5 -6.5t-17 -3t-19.5 -0.5q-32 0 -40 8.5t-8 32.5q0 42 13.5 76t38 57t58.5 35.5t75 12.5q51 0 89.5 -19t71 -42t62.5 -42
t64 -19q39 0 61.5 22.5t22.5 79.5zM182 1294z" />
    <glyph glyph-name="Ograve" unicode="&#xd2;" horiz-adv-x="1340" 
d="M1230 662q0 -155 -35.5 -280.5t-106.5 -214t-179 -136.5t-252 -48t-247.5 45.5t-170 130t-98 206.5t-31.5 275q0 152 35 276t106.5 211.5t179 135.5t252.5 48q141 0 244 -45t170.5 -129t100 -204t32.5 -271zM1100 651q0 115 -21.5 215.5t-71 175t-131.5 117t-203 42.5
q-120 0 -202.5 -44.5t-134 -119.5t-74 -175t-22.5 -211q0 -118 20.5 -219.5t69.5 -176.5t131 -117.5t205 -42.5q122 0 205 45.5t134 122t73 177t22 211.5zM736 1437q7 -9 10 -16t-0.5 -11.5t-13 -7t-26.5 -2.5q-15 0 -25.5 1t-19 4t-16.5 8.5t-18 15.5l-228 219
q-8 8 -9.5 15.5t4 13t18.5 9t35 3.5q18 0 31.5 -1t24.5 -4.5t20.5 -10t19.5 -17.5zM241 1294z" />
    <glyph glyph-name="Oacute" unicode="&#xd3;" horiz-adv-x="1340" 
d="M1230 662q0 -155 -35.5 -280.5t-106.5 -214t-179 -136.5t-252 -48t-247.5 45.5t-170 130t-98 206.5t-31.5 275q0 152 35 276t106.5 211.5t179 135.5t252.5 48q141 0 244 -45t170.5 -129t100 -204t32.5 -271zM1100 651q0 115 -21.5 215.5t-71 175t-131.5 117t-203 42.5
q-120 0 -202.5 -44.5t-134 -119.5t-74 -175t-22.5 -211q0 -118 20.5 -219.5t69.5 -176.5t131 -117.5t205 -42.5q122 0 205 45.5t134 122t73 177t22 211.5zM795 1656q10 11 19.5 17.5t20.5 10t25 4.5t32 1q21 0 34 -3.5t18.5 -9t4 -13t-8.5 -15.5l-228 -219
q-10 -10 -18 -15.5t-17 -8.5t-19.5 -4t-25.5 -1q-17 0 -26.5 2.5t-12.5 7t-1 11.5t10 16zM443 1294z" />
    <glyph glyph-name="Ocircumflex" unicode="&#xd4;" horiz-adv-x="1340" 
d="M1230 662q0 -155 -35.5 -280.5t-106.5 -214t-179 -136.5t-252 -48t-247.5 45.5t-170 130t-98 206.5t-31.5 275q0 152 35 276t106.5 211.5t179 135.5t252.5 48q141 0 244 -45t170.5 -129t100 -204t32.5 -271zM1100 651q0 115 -21.5 215.5t-71 175t-131.5 117t-203 42.5
q-120 0 -202.5 -44.5t-134 -119.5t-74 -175t-22.5 -211q0 -118 20.5 -219.5t69.5 -176.5t131 -117.5t205 -42.5q122 0 205 45.5t134 122t73 177t22 211.5zM684 1689q15 0 25 -1t17.5 -4t13 -7t11.5 -10l224 -234q7 -8 8 -14.5t-3.5 -10.5t-14.5 -6t-25 -2q-23 0 -37 1.5
t-22.5 3.5t-13.5 5.5t-10 7.5l-173 191l-179 -185q-8 -8 -15.5 -12.5t-18 -7t-24 -3.5t-33.5 -1q-19 0 -29.5 2.5t-14.5 6.5t-2 10t10 14l240 234q6 6 12 10t13.5 7t17 4t23.5 1zM219 1294z" />
    <glyph glyph-name="Otilde" unicode="&#xd5;" horiz-adv-x="1340" 
d="M1230 662q0 -155 -35.5 -280.5t-106.5 -214t-179 -136.5t-252 -48t-247.5 45.5t-170 130t-98 206.5t-31.5 275q0 152 35 276t106.5 211.5t179 135.5t252.5 48q141 0 244 -45t170.5 -129t100 -204t32.5 -271zM1100 651q0 115 -21.5 215.5t-71 175t-131.5 117t-203 42.5
q-120 0 -202.5 -44.5t-134 -119.5t-74 -175t-22.5 -211q0 -118 20.5 -219.5t69.5 -176.5t131 -117.5t205 -42.5q122 0 205 45.5t134 122t73 177t22 211.5zM905 1602q0 11 12.5 15.5t39.5 4.5q31 0 39.5 -8t8.5 -33q0 -82 -48.5 -131.5t-136.5 -49.5q-51 0 -89.5 19t-71.5 42
t-63 42t-64 19q-47 0 -65 -28t-18 -74q0 -6 -4 -10t-11.5 -6.5t-17 -3t-19.5 -0.5q-32 0 -40 8.5t-8 32.5q0 42 13.5 76t38 57t58.5 35.5t75 12.5q51 0 89.5 -19t71 -42t62.5 -42t64 -19q39 0 61.5 22.5t22.5 79.5zM204 1294z" />
    <glyph glyph-name="Odieresis" unicode="&#xd6;" horiz-adv-x="1340" 
d="M1230 662q0 -155 -35.5 -280.5t-106.5 -214t-179 -136.5t-252 -48t-247.5 45.5t-170 130t-98 206.5t-31.5 275q0 152 35 276t106.5 211.5t179 135.5t252.5 48q141 0 244 -45t170.5 -129t100 -204t32.5 -271zM1100 651q0 115 -21.5 215.5t-71 175t-131.5 117t-203 42.5
q-120 0 -202.5 -44.5t-134 -119.5t-74 -175t-22.5 -211q0 -118 20.5 -219.5t69.5 -176.5t131 -117.5t205 -42.5q122 0 205 45.5t134 122t73 177t22 211.5zM552 1526q0 -48 -17 -65t-62 -17q-44 0 -60.5 16.5t-16.5 64.5t17 65t61 17q45 0 61.5 -16.5t16.5 -64.5zM953 1526
q0 -48 -17 -65t-62 -17q-44 0 -60.5 16.5t-16.5 64.5t17 65t61 17q45 0 61.5 -16.5t16.5 -64.5zM248 1294z" />
    <glyph glyph-name="multiply" unicode="&#xd7;" horiz-adv-x="1020" 
d="M591 571l316 -315q4 -5 7.5 -10t3.5 -12q0 -9 -8 -21t-19.5 -22.5t-24 -18t-21.5 -7.5q-5 0 -10 2.5t-10 6.5l-317 317l-317 -317q-5 -5 -11 -7t-11 -2q-9 0 -20.5 8t-22 19t-17.5 23.5t-7 21.5q0 11 9 21l317 317l-317 317q-4 4 -6.5 9.5t-2.5 10.5q0 10 8 22t19 22.5
t23.5 17.5t21.5 7q11 0 21 -10l317 -317l317 317q4 5 9.5 7.5t10.5 2.5q9 0 21 -8t22.5 -19t18 -23.5t7.5 -22.5q0 -5 -2 -10t-8 -10z" />
    <glyph glyph-name="Oslash" unicode="&#xd8;" horiz-adv-x="1340" 
d="M1230 662q0 -155 -36 -280.5t-108 -214t-179.5 -136.5t-249.5 -48q-67 0 -122.5 10.5t-105.5 30.5l-119 -237q-3 -6 -9.5 -10.5t-16.5 -6.5t-23 -3t-31 -1q-19 0 -30 3.5t-15.5 10t-3.5 15.5t7 20l133 268q-54 40 -93.5 96t-66 126t-39 154t-12.5 181q0 152 35 276
t106.5 211.5t179 135.5t252.5 48q66 0 121 -11t107 -32l118 239q4 7 10.5 11t16.5 6.5t23.5 3t31.5 0.5q19 0 29.5 -3.5t15 -10t3.5 -15.5t-7 -20l-134 -270q53 -41 92.5 -96.5t66 -124.5t40 -150.5t13.5 -175.5zM1100 651q0 138 -32.5 252t-106.5 191l-480 -962
q39 -17 83.5 -27t101.5 -10q122 0 205 45.5t134 122t73 177t22 211.5zM861 1162q-39 19 -85 29t-103 10q-120 0 -202.5 -44.5t-134 -119.5t-74 -175t-22.5 -211q0 -142 32 -260t108 -194z" />
    <glyph glyph-name="Ugrave" unicode="&#xd9;" horiz-adv-x="1302" 
d="M1116 476q0 -118 -33.5 -210t-95.5 -155t-150 -95.5t-197 -32.5q-99 0 -182.5 31t-144 91.5t-94 150t-33.5 206.5v812q0 6 3 11t10.5 8t18.5 5t29 2q17 0 29 -2t19 -5t10 -8t3 -11v-792q0 -97 23.5 -170t68 -121.5t108 -73t143.5 -24.5q81 0 144.5 23.5t107.5 71.5
t67.5 119.5t23.5 167.5v799q0 6 3 11t10 8t19 5t29 2t29 -2t19 -5t10 -8t3 -11v-798zM695 1437q7 -9 10 -16t-0.5 -11.5t-13 -7t-26.5 -2.5q-15 0 -25.5 1t-19 4t-16.5 8.5t-18 15.5l-228 219q-8 8 -9.5 15.5t4 13t18.5 9t35 3.5q18 0 31.5 -1t24.5 -4.5t20.5 -10
t19.5 -17.5zM200 1294z" />
    <glyph glyph-name="Uacute" unicode="&#xda;" horiz-adv-x="1302" 
d="M1116 476q0 -118 -33.5 -210t-95.5 -155t-150 -95.5t-197 -32.5q-99 0 -182.5 31t-144 91.5t-94 150t-33.5 206.5v812q0 6 3 11t10.5 8t18.5 5t29 2q17 0 29 -2t19 -5t10 -8t3 -11v-792q0 -97 23.5 -170t68 -121.5t108 -73t143.5 -24.5q81 0 144.5 23.5t107.5 71.5
t67.5 119.5t23.5 167.5v799q0 6 3 11t10 8t19 5t29 2t29 -2t19 -5t10 -8t3 -11v-798zM771 1656q10 11 19.5 17.5t20.5 10t25 4.5t32 1q21 0 34 -3.5t18.5 -9t4 -13t-8.5 -15.5l-228 -219q-10 -10 -18 -15.5t-17 -8.5t-19.5 -4t-25.5 -1q-17 0 -26.5 2.5t-12.5 7t-1 11.5
t10 16zM419 1294z" />
    <glyph glyph-name="Ucircumflex" unicode="&#xdb;" horiz-adv-x="1302" 
d="M1116 476q0 -118 -33.5 -210t-95.5 -155t-150 -95.5t-197 -32.5q-99 0 -182.5 31t-144 91.5t-94 150t-33.5 206.5v812q0 6 3 11t10.5 8t18.5 5t29 2q17 0 29 -2t19 -5t10 -8t3 -11v-792q0 -97 23.5 -170t68 -121.5t108 -73t143.5 -24.5q81 0 144.5 23.5t107.5 71.5
t67.5 119.5t23.5 167.5v799q0 6 3 11t10 8t19 5t29 2t29 -2t19 -5t10 -8t3 -11v-798zM656 1689q15 0 25 -1t17.5 -4t13 -7t11.5 -10l224 -234q7 -8 8 -14.5t-3.5 -10.5t-14.5 -6t-25 -2q-23 0 -37 1.5t-22.5 3.5t-13.5 5.5t-10 7.5l-173 191l-179 -185q-8 -8 -15.5 -12.5
t-18 -7t-24 -3.5t-33.5 -1q-19 0 -29.5 2.5t-14.5 6.5t-2 10t10 14l240 234q6 6 12 10t13.5 7t17 4t23.5 1zM191 1294z" />
    <glyph glyph-name="Udieresis" unicode="&#xdc;" horiz-adv-x="1302" 
d="M1116 476q0 -118 -33.5 -210t-95.5 -155t-150 -95.5t-197 -32.5q-99 0 -182.5 31t-144 91.5t-94 150t-33.5 206.5v812q0 6 3 11t10.5 8t18.5 5t29 2q17 0 29 -2t19 -5t10 -8t3 -11v-792q0 -97 23.5 -170t68 -121.5t108 -73t143.5 -24.5q81 0 144.5 23.5t107.5 71.5
t67.5 119.5t23.5 167.5v799q0 6 3 11t10 8t19 5t29 2t29 -2t19 -5t10 -8t3 -11v-798zM526 1526q0 -48 -17 -65t-62 -17q-44 0 -60.5 16.5t-16.5 64.5t17 65t61 17q45 0 61.5 -16.5t16.5 -64.5zM927 1526q0 -48 -17 -65t-62 -17q-44 0 -60.5 16.5t-16.5 64.5t17 65t61 17
q45 0 61.5 -16.5t16.5 -64.5zM222 1294z" />
    <glyph glyph-name="Yacute" unicode="&#xdd;" horiz-adv-x="961" 
d="M542 510v-490q0 -6 -3 -11t-10 -8t-19 -5t-29 -2q-18 0 -29.5 2t-19 5t-10.5 8t-3 11v490l-372 743q-7 15 -8 24t4.5 14t18.5 7t33 2q22 0 35.5 -1.5t22 -4.5t12.5 -8t8 -12l198 -403q28 -57 55.5 -118t55.5 -123h2q26 59 53 119t55 119l200 406q3 7 7 12t11 8t18.5 4.5
t28.5 1.5q24 0 39 -2t21 -7.5t5 -14.5t-8 -23zM650 1656q10 11 19.5 17.5t20.5 10t25 4.5t32 1q21 0 34 -3.5t18.5 -9t4 -13t-8.5 -15.5l-228 -219q-10 -10 -18 -15.5t-17 -8.5t-19.5 -4t-25.5 -1q-17 0 -26.5 2.5t-12.5 7t-1 11.5t10 16zM298 1294z" />
    <glyph glyph-name="Thorn" unicode="&#xde;" horiz-adv-x="1040" 
d="M934 699q0 -90 -30 -165t-85.5 -129t-135 -84t-177.5 -30h-195v-274q0 -6 -3 -11t-10 -8.5t-18.5 -5t-29.5 -1.5q-17 0 -29 1.5t-19 5t-10 8.5t-3 11v1259q0 6 3 11t10 8t19 5t29 2q18 0 29.5 -2t18.5 -5t10 -8t3 -11v-206h197q39 0 77 -3.5t73 -11.5q64 -15 115 -46.5
t87 -77.5t55 -104.5t19 -127.5zM805 688q0 103 -50.5 171t-142.5 90q-28 8 -59 9.5t-54 1.5h-188v-561h210q66 0 118.5 21.5t89.5 59.5t56.5 91.5t19.5 116.5z" />
    <glyph glyph-name="germandbls" unicode="&#xdf;" horiz-adv-x="1049" 
d="M970 252q0 -59 -21.5 -108.5t-61.5 -85t-96.5 -55.5t-126.5 -20q-28 0 -56.5 5.5t-52.5 13t-42 16t-26 16t-12 20.5t-4 37q0 12 1.5 21.5t5 16t8.5 9.5t11 3q11 0 24.5 -9t34 -19.5t49 -19t70.5 -8.5q41 0 73 12.5t54.5 33.5t34.5 49.5t12 60.5q0 42 -16 73t-42.5 55.5
t-60.5 45t-69 41.5t-69 44.5t-60.5 54t-42.5 70t-16 92.5q0 54 18.5 96t51.5 72.5t77.5 49t96.5 24.5q13 28 17 58t4 66q0 38 -12 76.5t-38 69t-66.5 50t-98.5 19.5q-65 0 -110.5 -22t-73.5 -61t-40.5 -93t-12.5 -117v-985q0 -6 -3 -11t-9.5 -8t-18 -5t-29.5 -2
q-17 0 -28.5 2t-18.5 5t-9.5 8t-2.5 11v979q0 88 23 162t68.5 127t112.5 82.5t156 29.5q86 0 148 -28t102.5 -72t60 -98.5t19.5 -107.5q0 -49 -8 -91.5t-23.5 -83t-25 -49t-27.5 -8.5q-50 0 -84.5 -11.5t-56 -31t-31.5 -44t-10 -50.5q0 -53 28 -89t70 -64.5t91.5 -54.5
t91.5 -61t70 -83.5t28 -120.5z" />
    <glyph glyph-name="agrave" unicode="&#xe0;" horiz-adv-x="964" 
d="M801 20q0 -10 -6.5 -15.5t-17 -8t-28.5 -2.5q-17 0 -29 2.5t-18.5 8t-6.5 15.5v101q-61 -66 -134.5 -102t-152.5 -36q-71 0 -127.5 18.5t-95.5 53t-60 83.5t-21 110q0 75 31 130.5t88 92.5t137 55.5t178 18.5h144v78q0 58 -12 102.5t-39 74.5t-70 45t-105 15
q-60 0 -108 -14.5t-84 -32.5t-59.5 -32.5t-33.5 -14.5q-6 0 -11 2t-8.5 7.5t-5 14t-1.5 20.5q0 21 3 33.5t15.5 25t44.5 29.5t73.5 31.5t89.5 23.5t96 9q93 0 157 -22.5t103.5 -64.5t56.5 -103.5t17 -139.5v-612zM682 447h-165q-72 0 -126 -13t-90 -38t-53.5 -60t-17.5 -80
q0 -78 49.5 -124.5t139.5 -46.5q71 0 132.5 36.5t130.5 112.5v213zM538 1133q6 -9 7.5 -16t-2 -11.5t-12.5 -7t-24 -2.5t-25 1t-17.5 4t-13.5 8.5t-13 15.5l-174 234q-7 9 -8 16.5t4 13t17 8.5t31 3t32 -1.5t22 -5t16 -10.5t14 -17z" />
    <glyph glyph-name="aacute" unicode="&#xe1;" horiz-adv-x="964" 
d="M801 20q0 -10 -6.5 -15.5t-17 -8t-28.5 -2.5q-17 0 -29 2.5t-18.5 8t-6.5 15.5v101q-61 -66 -134.5 -102t-152.5 -36q-71 0 -127.5 18.5t-95.5 53t-60 83.5t-21 110q0 75 31 130.5t88 92.5t137 55.5t178 18.5h144v78q0 58 -12 102.5t-39 74.5t-70 45t-105 15
q-60 0 -108 -14.5t-84 -32.5t-59.5 -32.5t-33.5 -14.5q-6 0 -11 2t-8.5 7.5t-5 14t-1.5 20.5q0 21 3 33.5t15.5 25t44.5 29.5t73.5 31.5t89.5 23.5t96 9q93 0 157 -22.5t103.5 -64.5t56.5 -103.5t17 -139.5v-612zM682 447h-165q-72 0 -126 -13t-90 -38t-53.5 -60t-17.5 -80
q0 -78 49.5 -124.5t139.5 -46.5q71 0 132.5 36.5t130.5 112.5v213zM576 1366q6 10 13 17t16.5 10.5t23 5t32.5 1.5t31 -3t17 -8.5t3.5 -13t-8.5 -16.5l-174 -234q-7 -10 -12.5 -15.5t-12.5 -8.5t-17 -4t-25 -1t-24.5 2.5t-13 7t-2.5 11.5t7 16z" />
    <glyph glyph-name="acircumflex" unicode="&#xe2;" horiz-adv-x="964" 
d="M801 20q0 -10 -6.5 -15.5t-17 -8t-28.5 -2.5q-17 0 -29 2.5t-18.5 8t-6.5 15.5v101q-61 -66 -134.5 -102t-152.5 -36q-71 0 -127.5 18.5t-95.5 53t-60 83.5t-21 110q0 75 31 130.5t88 92.5t137 55.5t178 18.5h144v78q0 58 -12 102.5t-39 74.5t-70 45t-105 15
q-60 0 -108 -14.5t-84 -32.5t-59.5 -32.5t-33.5 -14.5q-6 0 -11 2t-8.5 7.5t-5 14t-1.5 20.5q0 21 3 33.5t15.5 25t44.5 29.5t73.5 31.5t89.5 23.5t96 9q93 0 157 -22.5t103.5 -64.5t56.5 -103.5t17 -139.5v-612zM682 447h-165q-72 0 -126 -13t-90 -38t-53.5 -60t-17.5 -80
q0 -78 49.5 -124.5t139.5 -46.5q71 0 132.5 36.5t130.5 112.5v213zM343 1122q-6 -8 -11 -13t-12 -8t-16 -4t-22 -1q-20 0 -31 3t-14.5 9t0 15.5t13.5 22.5l169 232q5 7 10.5 11t13.5 6.5t19.5 3.5t28.5 1q15 0 25 -1t17.5 -4t12.5 -7t10 -10l169 -232q9 -13 12.5 -22.5
t0 -15.5t-14.5 -9t-30 -3q-15 0 -24 1t-15.5 4t-11 8t-10.5 13l-145 198zM87 946z" />
    <glyph glyph-name="atilde" unicode="&#xe3;" horiz-adv-x="964" 
d="M801 20q0 -10 -6.5 -15.5t-17 -8t-28.5 -2.5q-17 0 -29 2.5t-18.5 8t-6.5 15.5v101q-61 -66 -134.5 -102t-152.5 -36q-71 0 -127.5 18.5t-95.5 53t-60 83.5t-21 110q0 75 31 130.5t88 92.5t137 55.5t178 18.5h144v78q0 58 -12 102.5t-39 74.5t-70 45t-105 15
q-60 0 -108 -14.5t-84 -32.5t-59.5 -32.5t-33.5 -14.5q-6 0 -11 2t-8.5 7.5t-5 14t-1.5 20.5q0 21 3 33.5t15.5 25t44.5 29.5t73.5 31.5t89.5 23.5t96 9q93 0 157 -22.5t103.5 -64.5t56.5 -103.5t17 -139.5v-612zM682 447h-165q-72 0 -126 -13t-90 -38t-53.5 -60t-17.5 -80
q0 -78 49.5 -124.5t139.5 -46.5q71 0 132.5 36.5t130.5 112.5v213zM803 1302q0 -98 -49.5 -149.5t-130.5 -51.5q-36 0 -64.5 10.5t-52.5 26.5t-44.5 34.5t-40.5 34.5t-40 26.5t-43 10.5q-44 0 -61 -32.5t-17 -84.5q0 -7 -1.5 -12t-7 -8t-16 -4.5t-27.5 -1.5q-13 0 -22 2
t-14 6.5t-7.5 13t-2.5 21.5q0 90 46.5 145t132.5 55q54 0 92.5 -22.5t70 -49t60.5 -49t63 -22.5q39 0 58.5 29t19.5 88q0 14 8.5 20t37.5 6q32 0 42 -8t10 -34z" />
    <glyph glyph-name="adieresis" unicode="&#xe4;" horiz-adv-x="964" 
d="M801 20q0 -10 -6.5 -15.5t-17 -8t-28.5 -2.5q-17 0 -29 2.5t-18.5 8t-6.5 15.5v101q-61 -66 -134.5 -102t-152.5 -36q-71 0 -127.5 18.5t-95.5 53t-60 83.5t-21 110q0 75 31 130.5t88 92.5t137 55.5t178 18.5h144v78q0 58 -12 102.5t-39 74.5t-70 45t-105 15
q-60 0 -108 -14.5t-84 -32.5t-59.5 -32.5t-33.5 -14.5q-6 0 -11 2t-8.5 7.5t-5 14t-1.5 20.5q0 21 3 33.5t15.5 25t44.5 29.5t73.5 31.5t89.5 23.5t96 9q93 0 157 -22.5t103.5 -64.5t56.5 -103.5t17 -139.5v-612zM682 447h-165q-72 0 -126 -13t-90 -38t-53.5 -60t-17.5 -80
q0 -78 49.5 -124.5t139.5 -46.5q71 0 132.5 36.5t130.5 112.5v213zM393 1211q0 -46 -16 -62t-59 -16t-58.5 15.5t-15.5 61.5q0 47 16 63t58 16q44 0 59.5 -16t15.5 -62zM727 1211q0 -46 -16 -62t-59 -16t-58.5 15.5t-15.5 61.5q0 47 16 63t58 16q44 0 59.5 -16t15.5 -62z
M96 946z" />
    <glyph glyph-name="aring" unicode="&#xe5;" horiz-adv-x="964" 
d="M801 20q0 -10 -6.5 -15.5t-17 -8t-28.5 -2.5q-17 0 -29 2.5t-18.5 8t-6.5 15.5v101q-61 -66 -134.5 -102t-152.5 -36q-71 0 -127.5 18.5t-95.5 53t-60 83.5t-21 110q0 75 31 130.5t88 92.5t137 55.5t178 18.5h144v78q0 58 -12 102.5t-39 74.5t-70 45t-105 15
q-60 0 -108 -14.5t-84 -32.5t-59.5 -32.5t-33.5 -14.5q-6 0 -11 2t-8.5 7.5t-5 14t-1.5 20.5q0 21 3 33.5t15.5 25t44.5 29.5t73.5 31.5t89.5 23.5t96 9q93 0 157 -22.5t103.5 -64.5t56.5 -103.5t17 -139.5v-612zM682 447h-165q-72 0 -126 -13t-90 -38t-53.5 -60t-17.5 -80
q0 -78 49.5 -124.5t139.5 -46.5q71 0 132.5 36.5t130.5 112.5v213zM662 1253q0 -37 -13 -69t-36.5 -56t-56.5 -37.5t-74 -13.5q-45 0 -77.5 13t-53.5 36t-31.5 53.5t-10.5 66.5q0 37 12 69t35 56t56.5 37t76.5 13q81 0 127 -46.5t46 -121.5zM580 1246q0 45 -23.5 74.5
t-71.5 29.5q-44 0 -69 -27t-25 -70q0 -49 23 -77t73 -28q44 0 68.5 27.5t24.5 70.5z" />
    <glyph glyph-name="ae" unicode="&#xe6;" horiz-adv-x="1581" 
d="M1474 519q0 -36 -19 -49.5t-37 -13.5h-617q0 -84 16.5 -152t54.5 -116.5t99.5 -74.5t150.5 -26q63 0 113 11t86.5 24.5t60 24.5t33.5 11q6 0 10.5 -3t7.5 -9.5t4.5 -16.5t1.5 -25q0 -7 -1 -13.5t-2.5 -12t-4.5 -10.5t-8 -10t-31 -17.5t-68 -25t-97.5 -22.5t-119.5 -10
q-65 0 -119.5 11.5t-98.5 34t-78.5 55t-59.5 74.5q-33 -39 -71 -71t-80.5 -55.5t-90 -36t-101.5 -12.5q-71 0 -127.5 18.5t-95.5 53t-60 83.5t-21 110q0 75 31 130.5t88 92.5t137 55.5t178 18.5h144v78q0 58 -12 102.5t-39 74.5t-70 45t-105 15q-60 0 -108 -14.5
t-84.5 -32.5t-60.5 -32.5t-34 -14.5q-6 0 -10.5 2t-7.5 7.5t-4.5 14t-1.5 20.5q0 21 3 33.5t15.5 25t44.5 29.5t73.5 31.5t89.5 23.5t96 9q67 0 117 -12t86 -34.5t59.5 -53.5t38.5 -68q48 81 133 124.5t191 43.5q102 0 174 -34t118.5 -91.5t68 -133.5t21.5 -160v-24z
M1352 554q1 72 -16 128.5t-51 96t-84.5 60.5t-115.5 21q-68 0 -120 -25.5t-87.5 -67.5t-54.5 -97.5t-22 -115.5h551zM705 261q-13 37 -19 88.5t-6 97.5h-163q-72 0 -126 -13t-90 -38t-53.5 -60t-17.5 -80q0 -78 49.5 -124.5t139.5 -46.5q71 0 140.5 41.5t145.5 134.5z" />
    <glyph glyph-name="ccedilla" unicode="&#xe7;" horiz-adv-x="871" 
d="M799 154q0 -12 -1 -21.5t-3 -16.5t-5.5 -12.5t-16.5 -18.5t-45.5 -34t-82.5 -40t-115 -26l28 -63q23 -49 33 -78.5t10 -54.5q0 -34 -12.5 -62.5t-36.5 -48.5t-58.5 -31.5t-78.5 -11.5q-30 0 -58 3.5t-49.5 8t-28.5 7.5t-10 8t-4.5 12t-1.5 18q0 26 6 33.5t18 7.5h128
q35 0 55 14.5t20 44.5q0 14 -7 35.5t-18 46.5l-52 115q-104 16 -173.5 77t-104.5 161.5t-35 237.5q0 132 31.5 226t86.5 154t128.5 88.5t157.5 28.5q45 0 86 -8.5t75.5 -22.5t61.5 -32t39.5 -30.5t17 -19t7 -14.5t3.5 -17.5t1 -22.5q0 -29 -8.5 -40.5t-18.5 -11.5
q-14 0 -34.5 18t-52.5 39.5t-77.5 39.5t-108.5 18q-130 0 -200.5 -100t-70.5 -289q0 -95 19 -166.5t54.5 -119t86.5 -71t115 -23.5q60 0 106 19t80 42t56.5 42t33.5 19q6 0 10.5 -3.5t7.5 -11t4.5 -18t1.5 -24.5z" />
    <glyph glyph-name="egrave" unicode="&#xe8;" horiz-adv-x="1012" 
d="M905 519q0 -36 -19 -49.5t-37 -13.5h-617q0 -84 16.5 -152t54.5 -116.5t99 -74.5t150 -26q63 0 113 11t86.5 24.5t60 24.5t33.5 11q6 0 11 -3t8 -9.5t4.5 -16.5t1.5 -25q0 -7 -1 -13.5t-2.5 -12t-4.5 -10.5t-8 -10t-31 -17.5t-68 -25t-97.5 -22.5t-119.5 -10
q-105 0 -186 31.5t-136 93t-83.5 152.5t-28.5 211q0 115 29.5 206t84.5 154.5t132.5 97t172.5 33.5q102 0 174 -34t118.5 -91.5t68 -133.5t21.5 -160v-24zM782 554q3 144 -66 225t-201 81q-68 0 -119.5 -25.5t-87 -67.5t-54.5 -97.5t-22 -115.5h550zM575 1133q6 -9 7.5 -16
t-2 -11.5t-12.5 -7t-24 -2.5t-25 1t-17.5 4t-13.5 8.5t-13 15.5l-174 234q-7 9 -8 16.5t4 13t17 8.5t31 3t32 -1.5t22 -5t16 -10.5t14 -17z" />
    <glyph glyph-name="eacute" unicode="&#xe9;" horiz-adv-x="1012" 
d="M905 519q0 -36 -19 -49.5t-37 -13.5h-617q0 -84 16.5 -152t54.5 -116.5t99 -74.5t150 -26q63 0 113 11t86.5 24.5t60 24.5t33.5 11q6 0 11 -3t8 -9.5t4.5 -16.5t1.5 -25q0 -7 -1 -13.5t-2.5 -12t-4.5 -10.5t-8 -10t-31 -17.5t-68 -25t-97.5 -22.5t-119.5 -10
q-105 0 -186 31.5t-136 93t-83.5 152.5t-28.5 211q0 115 29.5 206t84.5 154.5t132.5 97t172.5 33.5q102 0 174 -34t118.5 -91.5t68 -133.5t21.5 -160v-24zM782 554q3 144 -66 225t-201 81q-68 0 -119.5 -25.5t-87 -67.5t-54.5 -97.5t-22 -115.5h550zM608 1366q6 10 13 17
t16.5 10.5t23 5t32.5 1.5t31 -3t17 -8.5t3.5 -13t-8.5 -16.5l-174 -234q-7 -10 -12.5 -15.5t-12.5 -8.5t-17 -4t-25 -1t-24.5 2.5t-13 7t-2.5 11.5t7 16z" />
    <glyph glyph-name="ecircumflex" unicode="&#xea;" horiz-adv-x="1012" 
d="M905 519q0 -36 -19 -49.5t-37 -13.5h-617q0 -84 16.5 -152t54.5 -116.5t99 -74.5t150 -26q63 0 113 11t86.5 24.5t60 24.5t33.5 11q6 0 11 -3t8 -9.5t4.5 -16.5t1.5 -25q0 -7 -1 -13.5t-2.5 -12t-4.5 -10.5t-8 -10t-31 -17.5t-68 -25t-97.5 -22.5t-119.5 -10
q-105 0 -186 31.5t-136 93t-83.5 152.5t-28.5 211q0 115 29.5 206t84.5 154.5t132.5 97t172.5 33.5q102 0 174 -34t118.5 -91.5t68 -133.5t21.5 -160v-24zM782 554q3 144 -66 225t-201 81q-68 0 -119.5 -25.5t-87 -67.5t-54.5 -97.5t-22 -115.5h550zM371 1122q-6 -8 -11 -13
t-12 -8t-16 -4t-22 -1q-20 0 -31 3t-14.5 9t0 15.5t13.5 22.5l169 232q5 7 10.5 11t13.5 6.5t19.5 3.5t28.5 1q15 0 25 -1t17.5 -4t12.5 -7t10 -10l169 -232q9 -13 12.5 -22.5t0 -15.5t-14.5 -9t-30 -3q-15 0 -24 1t-15.5 4t-11 8t-10.5 13l-145 198zM115 946z" />
    <glyph glyph-name="edieresis" unicode="&#xeb;" horiz-adv-x="1012" 
d="M905 519q0 -36 -19 -49.5t-37 -13.5h-617q0 -84 16.5 -152t54.5 -116.5t99 -74.5t150 -26q63 0 113 11t86.5 24.5t60 24.5t33.5 11q6 0 11 -3t8 -9.5t4.5 -16.5t1.5 -25q0 -7 -1 -13.5t-2.5 -12t-4.5 -10.5t-8 -10t-31 -17.5t-68 -25t-97.5 -22.5t-119.5 -10
q-105 0 -186 31.5t-136 93t-83.5 152.5t-28.5 211q0 115 29.5 206t84.5 154.5t132.5 97t172.5 33.5q102 0 174 -34t118.5 -91.5t68 -133.5t21.5 -160v-24zM782 554q3 144 -66 225t-201 81q-68 0 -119.5 -25.5t-87 -67.5t-54.5 -97.5t-22 -115.5h550zM423 1211q0 -46 -16 -62
t-59 -16t-58.5 15.5t-15.5 61.5q0 47 16 63t58 16q44 0 59.5 -16t15.5 -62zM757 1211q0 -46 -16 -62t-59 -16t-58.5 15.5t-15.5 61.5q0 47 16 63t58 16q44 0 59.5 -16t15.5 -62zM126 946z" />
    <glyph glyph-name="igrave" unicode="&#xec;" horiz-adv-x="452" 
d="M286 20q0 -6 -3 -11t-9.5 -8t-18 -5t-29.5 -2q-17 0 -28.5 2t-18.5 5t-9.5 8t-2.5 11v905q0 6 2.5 11t9.5 8.5t18.5 5t28.5 1.5q18 0 29.5 -1.5t18 -5t9.5 -8.5t3 -11v-905zM279 1133q6 -9 7.5 -16t-2 -11.5t-12.5 -7t-24 -2.5t-25 1t-17.5 4t-13.5 8.5t-13 15.5
l-174 234q-7 9 -8 16.5t4 13t17 8.5t31 3t32 -1.5t22 -5t16 -10.5t14 -17z" />
    <glyph glyph-name="iacute" unicode="&#xed;" horiz-adv-x="452" 
d="M286 20q0 -6 -3 -11t-9.5 -8t-18 -5t-29.5 -2q-17 0 -28.5 2t-18.5 5t-9.5 8t-2.5 11v905q0 6 2.5 11t9.5 8.5t18.5 5t28.5 1.5q18 0 29.5 -1.5t18 -5t9.5 -8.5t3 -11v-905zM311 1366q6 10 13 17t16.5 10.5t23 5t32.5 1.5t31 -3t17 -8.5t3.5 -13t-8.5 -16.5l-174 -234
q-7 -10 -12.5 -15.5t-12.5 -8.5t-17 -4t-25 -1t-24.5 2.5t-13 7t-2.5 11.5t7 16z" />
    <glyph glyph-name="icircumflex" unicode="&#xee;" horiz-adv-x="452" 
d="M286 20q0 -6 -3 -11t-9.5 -8t-18 -5t-29.5 -2q-17 0 -28.5 2t-18.5 5t-9.5 8t-2.5 11v905q0 6 2.5 11t9.5 8.5t18.5 5t28.5 1.5q18 0 29.5 -1.5t18 -5t9.5 -8.5t3 -11v-905zM85 1122q-6 -8 -11 -13t-12 -8t-16 -4t-22 -1q-20 0 -31 3t-14.5 9t0 15.5t13.5 22.5l169 232
q5 7 10.5 11t13.5 6.5t19.5 3.5t28.5 1q15 0 25 -1t17.5 -4t12.5 -7t10 -10l169 -232q9 -13 12.5 -22.5t0 -15.5t-14.5 -9t-30 -3q-15 0 -24 1t-15.5 4t-11 8t-10.5 13l-145 198zM-171 946z" />
    <glyph glyph-name="idieresis" unicode="&#xef;" horiz-adv-x="452" 
d="M286 20q0 -6 -3 -11t-9.5 -8t-18 -5t-29.5 -2q-17 0 -28.5 2t-18.5 5t-9.5 8t-2.5 11v905q0 6 2.5 11t9.5 8.5t18.5 5t28.5 1.5q18 0 29.5 -1.5t18 -5t9.5 -8.5t3 -11v-905zM153 1211q0 -45 -16.5 -61.5t-58.5 -16.5t-58 16t-16 61q0 46 16.5 62.5t57.5 16.5q43 0 59 -16
t16 -62zM450 1211q0 -45 -16.5 -61.5t-58.5 -16.5t-58 16t-16 61q0 46 16.5 62.5t57.5 16.5q43 0 59 -16t16 -62zM-144 946z" />
    <glyph glyph-name="eth" unicode="&#xf0;" horiz-adv-x="1064" 
d="M300 1081q-8 -2 -14.5 -1t-10.5 6t-6 14.5t-2 24.5q0 13 2 23t6 16.5t10.5 10.5t14.5 6l212 56q-11 12 -26 28.5t-31 33.5t-32 33.5t-28 30.5q-6 6 -7 11t4.5 8t19.5 5t39 2t42.5 -2t30 -5t20.5 -8t14 -11q31 -35 55 -61.5t27 -31.5l257 67q9 2 15 1t10.5 -5.5t6.5 -14
t2 -24.5q0 -13 -2 -23t-6.5 -17t-10.5 -11t-15 -6l-191 -49q54 -71 93.5 -139t65 -141.5t37.5 -156t12 -182.5q0 -136 -25.5 -244.5t-78 -184.5t-134.5 -116.5t-194 -40.5q-108 0 -180 40.5t-115 107t-61 153t-18 178.5q0 121 26.5 214t76.5 156.5t122 96.5t162 33
q36 0 70.5 -8t68 -23.5t65.5 -39.5t63 -57q-8 27 -21.5 62t-34.5 75.5t-52 86.5t-74 97zM792 558q0 38 -1 65.5t-3 47.5q-45 49 -85 85t-76 59t-70 34t-68 11q-65 0 -113.5 -30.5t-80.5 -82.5t-47.5 -121t-15.5 -146q0 -75 12 -146t41 -126.5t78 -89t123 -33.5q75 0 132 27
t96 85t58.5 147t19.5 214z" />
    <glyph glyph-name="ntilde" unicode="&#xf1;" horiz-adv-x="1064" 
d="M901 20q0 -6 -3 -11t-9.5 -8t-18 -5t-28.5 -2q-18 0 -29.5 2t-18 5t-9.5 8t-3 11v537q0 84 -13 136.5t-39 90t-66.5 58t-94.5 20.5q-69 0 -138 -49t-145 -144v-649q0 -6 -3 -11t-9.5 -8t-18 -5t-29.5 -2q-17 0 -28.5 2t-18.5 5t-9.5 8t-2.5 11v905q0 6 2.5 11t9.5 8.5
t17.5 5t27.5 1.5t28 -1.5t17 -5t8.5 -8.5t2.5 -11v-128q78 87 153 126t149 39q89 0 150 -30t98.5 -81t54 -119t16.5 -164v-548zM853 1302q0 -98 -49.5 -149.5t-130.5 -51.5q-36 0 -64.5 10.5t-52.5 26.5t-44.5 34.5t-40.5 34.5t-40 26.5t-43 10.5q-44 0 -61 -32.5t-17 -84.5
q0 -7 -1.5 -12t-7 -8t-16 -4.5t-27.5 -1.5q-13 0 -22 2t-14 6.5t-7.5 13t-2.5 21.5q0 90 46.5 145t132.5 55q54 0 92.5 -22.5t70 -49t60.5 -49t63 -22.5q39 0 58.5 29t19.5 88q0 14 8.5 20t37.5 6q32 0 42 -8t10 -34z" />
    <glyph glyph-name="ograve" unicode="&#xf2;" horiz-adv-x="1068" 
d="M968 482q0 -108 -28 -199t-83.5 -158t-138.5 -104.5t-193 -37.5q-106 0 -185.5 33.5t-133 96t-80 151.5t-26.5 201q0 108 27.5 199t83 157.5t138.5 103.5t194 37q106 0 185.5 -33t132.5 -95.5t80 -151.5t27 -200zM842 471q0 77 -15 147t-50 123.5t-94 85t-147 31.5
q-81 0 -140 -29t-96.5 -80.5t-55.5 -121.5t-18 -151q0 -78 15 -148.5t50 -123.5t94 -84t147 -31q81 0 140 29t96.5 80t55.5 121t18 152zM580 1133q6 -9 7.5 -16t-2 -11.5t-12.5 -7t-24 -2.5t-25 1t-17.5 4t-13.5 8.5t-13 15.5l-174 234q-7 9 -8 16.5t4 13t17 8.5t31 3
t32 -1.5t22 -5t16 -10.5t14 -17z" />
    <glyph glyph-name="oacute" unicode="&#xf3;" horiz-adv-x="1068" 
d="M968 482q0 -108 -28 -199t-83.5 -158t-138.5 -104.5t-193 -37.5q-106 0 -185.5 33.5t-133 96t-80 151.5t-26.5 201q0 108 27.5 199t83 157.5t138.5 103.5t194 37q106 0 185.5 -33t132.5 -95.5t80 -151.5t27 -200zM842 471q0 77 -15 147t-50 123.5t-94 85t-147 31.5
q-81 0 -140 -29t-96.5 -80.5t-55.5 -121.5t-18 -151q0 -78 15 -148.5t50 -123.5t94 -84t147 -31q81 0 140 29t96.5 80t55.5 121t18 152zM634 1366q6 10 13 17t16.5 10.5t23 5t32.5 1.5t31 -3t17 -8.5t3.5 -13t-8.5 -16.5l-174 -234q-7 -10 -12.5 -15.5t-12.5 -8.5t-17 -4
t-25 -1t-24.5 2.5t-13 7t-2.5 11.5t7 16z" />
    <glyph glyph-name="ocircumflex" unicode="&#xf4;" horiz-adv-x="1068" 
d="M968 482q0 -108 -28 -199t-83.5 -158t-138.5 -104.5t-193 -37.5q-106 0 -185.5 33.5t-133 96t-80 151.5t-26.5 201q0 108 27.5 199t83 157.5t138.5 103.5t194 37q106 0 185.5 -33t132.5 -95.5t80 -151.5t27 -200zM842 471q0 77 -15 147t-50 123.5t-94 85t-147 31.5
q-81 0 -140 -29t-96.5 -80.5t-55.5 -121.5t-18 -151q0 -78 15 -148.5t50 -123.5t94 -84t147 -31q81 0 140 29t96.5 80t55.5 121t18 152zM389 1122q-6 -8 -11 -13t-12 -8t-16 -4t-22 -1q-20 0 -31 3t-14.5 9t0 15.5t13.5 22.5l169 232q5 7 10.5 11t13.5 6.5t19.5 3.5t28.5 1
q15 0 25 -1t17.5 -4t12.5 -7t10 -10l169 -232q9 -13 12.5 -22.5t0 -15.5t-14.5 -9t-30 -3q-15 0 -24 1t-15.5 4t-11 8t-10.5 13l-145 198zM133 946z" />
    <glyph glyph-name="otilde" unicode="&#xf5;" horiz-adv-x="1068" 
d="M968 482q0 -108 -28 -199t-83.5 -158t-138.5 -104.5t-193 -37.5q-106 0 -185.5 33.5t-133 96t-80 151.5t-26.5 201q0 108 27.5 199t83 157.5t138.5 103.5t194 37q106 0 185.5 -33t132.5 -95.5t80 -151.5t27 -200zM842 471q0 77 -15 147t-50 123.5t-94 85t-147 31.5
q-81 0 -140 -29t-96.5 -80.5t-55.5 -121.5t-18 -151q0 -78 15 -148.5t50 -123.5t94 -84t147 -31q81 0 140 29t96.5 80t55.5 121t18 152zM855 1302q0 -98 -49.5 -149.5t-130.5 -51.5q-36 0 -64.5 10.5t-52.5 26.5t-44.5 34.5t-40.5 34.5t-40 26.5t-43 10.5q-44 0 -61 -32.5
t-17 -84.5q0 -7 -1.5 -12t-7 -8t-16 -4.5t-27.5 -1.5q-13 0 -22 2t-14 6.5t-7.5 13t-2.5 21.5q0 90 46.5 145t132.5 55q54 0 92.5 -22.5t70 -49t60.5 -49t63 -22.5q39 0 58.5 29t19.5 88q0 14 8.5 20t37.5 6q32 0 42 -8t10 -34z" />
    <glyph glyph-name="odieresis" unicode="&#xf6;" horiz-adv-x="1068" 
d="M968 482q0 -108 -28 -199t-83.5 -158t-138.5 -104.5t-193 -37.5q-106 0 -185.5 33.5t-133 96t-80 151.5t-26.5 201q0 108 27.5 199t83 157.5t138.5 103.5t194 37q106 0 185.5 -33t132.5 -95.5t80 -151.5t27 -200zM842 471q0 77 -15 147t-50 123.5t-94 85t-147 31.5
q-81 0 -140 -29t-96.5 -80.5t-55.5 -121.5t-18 -151q0 -78 15 -148.5t50 -123.5t94 -84t147 -31q81 0 140 29t96.5 80t55.5 121t18 152zM442 1211q0 -46 -16 -62t-59 -16t-58.5 15.5t-15.5 61.5q0 47 16 63t58 16q44 0 59.5 -16t15.5 -62zM776 1211q0 -46 -16 -62t-59 -16
t-58.5 15.5t-15.5 61.5q0 47 16 63t58 16q44 0 59.5 -16t15.5 -62zM145 946z" />
    <glyph glyph-name="divide" unicode="&#xf7;" horiz-adv-x="1020" 
d="M601 938q0 -29 -5 -48.5t-16.5 -32t-31 -18t-47.5 -5.5q-29 0 -48.5 5.5t-31 18t-16.5 32t-5 48.5t5 49t16.5 32.5t31 18t48.5 5.5q28 0 47.5 -5.5t31 -18t16.5 -32.5t5 -49zM951 577q0 -14 -2.5 -24.5t-6.5 -17.5t-10.5 -10.5t-13.5 -3.5h-838q-8 0 -14 3.5t-10 10.5
t-6 17.5t-2 24.5t2 24.5t6 17t10 10t14 3.5h838q7 0 13.5 -3.5t10.5 -10t6.5 -17t2.5 -24.5zM601 211q0 -29 -5 -48.5t-16.5 -31.5t-31 -17.5t-47.5 -5.5q-29 0 -48.5 5.5t-31 17.5t-16.5 31.5t-5 48.5t5 49.5t16.5 33t31 18t48.5 5.5q28 0 47.5 -5.5t31 -18t16.5 -33
t5 -49.5z" />
    <glyph glyph-name="oslash" unicode="&#xf8;" horiz-adv-x="1068" 
d="M968 482q0 -108 -28 -199t-83.5 -158t-138.5 -104.5t-193 -37.5q-47 0 -88 6.5t-70 17.5l-69 -142q-7 -16 -24 -21t-46 -5q-35 0 -41.5 9t4.5 31l83 173q-47 31 -80 76t-54 99t-30.5 114.5t-9.5 123.5q0 108 27.5 199t83 157.5t138.5 103.5t194 37q39 0 80.5 -5.5
t77.5 -16.5l67 139q8 15 23.5 20.5t44.5 5.5q38 0 44 -9t-5 -32l-81 -170q44 -29 77 -72t54.5 -96.5t32 -115t10.5 -128.5zM844 471q0 46 -5.5 91t-17.5 86.5t-31.5 76.5t-47.5 61l-327 -680q24 -10 55 -14.5t62 -4.5q81 0 140 29t97.5 80.5t56.5 122t18 152.5zM654 842
q-23 8 -54 13t-64 5q-81 0 -140 -29.5t-97.5 -81t-56.5 -122t-18 -151.5q0 -96 22.5 -179t79.5 -138z" />
    <glyph glyph-name="ugrave" unicode="&#xf9;" horiz-adv-x="1064" 
d="M897 20q0 -6 -2.5 -11t-9.5 -8t-18 -5t-27 -2q-18 0 -29 2t-17 5t-8.5 8t-2.5 11v128q-78 -87 -152.5 -126t-148.5 -39q-89 0 -150 30t-98.5 81.5t-54 119.5t-16.5 164v547q0 6 2.5 11t9.5 8.5t18.5 5t28.5 1.5q18 0 29.5 -1.5t18 -5t9.5 -8.5t3 -11v-536q0 -84 13 -137
t39 -90.5t66.5 -58t94.5 -20.5q69 0 137.5 49t145.5 144v649q0 6 2.5 11t9.5 8.5t18.5 5t29.5 1.5q17 0 28.5 -1.5t18 -5t9.5 -8.5t3 -11v-905zM578 1133q6 -9 7.5 -16t-2 -11.5t-12.5 -7t-24 -2.5t-25 1t-17.5 4t-13.5 8.5t-13 15.5l-174 234q-7 9 -8 16.5t4 13t17 8.5
t31 3t32 -1.5t22 -5t16 -10.5t14 -17z" />
    <glyph glyph-name="uacute" unicode="&#xfa;" horiz-adv-x="1064" 
d="M897 20q0 -6 -2.5 -11t-9.5 -8t-18 -5t-27 -2q-18 0 -29 2t-17 5t-8.5 8t-2.5 11v128q-78 -87 -152.5 -126t-148.5 -39q-89 0 -150 30t-98.5 81.5t-54 119.5t-16.5 164v547q0 6 2.5 11t9.5 8.5t18.5 5t28.5 1.5q18 0 29.5 -1.5t18 -5t9.5 -8.5t3 -11v-536q0 -84 13 -137
t39 -90.5t66.5 -58t94.5 -20.5q69 0 137.5 49t145.5 144v649q0 6 2.5 11t9.5 8.5t18.5 5t29.5 1.5q17 0 28.5 -1.5t18 -5t9.5 -8.5t3 -11v-905zM632 1366q6 10 13 17t16.5 10.5t23 5t32.5 1.5t31 -3t17 -8.5t3.5 -13t-8.5 -16.5l-174 -234q-7 -10 -12.5 -15.5t-12.5 -8.5
t-17 -4t-25 -1t-24.5 2.5t-13 7t-2.5 11.5t7 16z" />
    <glyph glyph-name="ucircumflex" unicode="&#xfb;" horiz-adv-x="1064" 
d="M897 20q0 -6 -2.5 -11t-9.5 -8t-18 -5t-27 -2q-18 0 -29 2t-17 5t-8.5 8t-2.5 11v128q-78 -87 -152.5 -126t-148.5 -39q-89 0 -150 30t-98.5 81.5t-54 119.5t-16.5 164v547q0 6 2.5 11t9.5 8.5t18.5 5t28.5 1.5q18 0 29.5 -1.5t18 -5t9.5 -8.5t3 -11v-536q0 -84 13 -137
t39 -90.5t66.5 -58t94.5 -20.5q69 0 137.5 49t145.5 144v649q0 6 2.5 11t9.5 8.5t18.5 5t29.5 1.5q17 0 28.5 -1.5t18 -5t9.5 -8.5t3 -11v-905zM388 1122q-6 -8 -11 -13t-12 -8t-16 -4t-22 -1q-20 0 -31 3t-14.5 9t0 15.5t13.5 22.5l169 232q5 7 10.5 11t13.5 6.5t19.5 3.5
t28.5 1q15 0 25 -1t17.5 -4t12.5 -7t10 -10l169 -232q9 -13 12.5 -22.5t0 -15.5t-14.5 -9t-30 -3q-15 0 -24 1t-15.5 4t-11 8t-10.5 13l-145 198zM132 946z" />
    <glyph glyph-name="udieresis" unicode="&#xfc;" horiz-adv-x="1064" 
d="M897 20q0 -6 -2.5 -11t-9.5 -8t-18 -5t-27 -2q-18 0 -29 2t-17 5t-8.5 8t-2.5 11v128q-78 -87 -152.5 -126t-148.5 -39q-89 0 -150 30t-98.5 81.5t-54 119.5t-16.5 164v547q0 6 2.5 11t9.5 8.5t18.5 5t28.5 1.5q18 0 29.5 -1.5t18 -5t9.5 -8.5t3 -11v-536q0 -84 13 -137
t39 -90.5t66.5 -58t94.5 -20.5q69 0 137.5 49t145.5 144v649q0 6 2.5 11t9.5 8.5t18.5 5t29.5 1.5q17 0 28.5 -1.5t18 -5t9.5 -8.5t3 -11v-905zM440 1211q0 -46 -16 -62t-59 -16t-58.5 15.5t-15.5 61.5q0 47 16 63t58 16q44 0 59.5 -16t15.5 -62zM774 1211q0 -46 -16 -62
t-59 -16t-58.5 15.5t-15.5 61.5q0 47 16 63t58 16q44 0 59.5 -16t15.5 -62zM143 946z" />
    <glyph glyph-name="yacute" unicode="&#xfd;" horiz-adv-x="903" 
d="M519 0l-126 -339q-5 -11 -21 -18.5t-51 -7.5q-18 0 -30 2t-18.5 7.5t-7.5 14t4 20.5l128 321q-8 3 -14 10t-8 14l-329 883q-5 14 -5 22.5t5.5 13.5t18 6.5t33.5 1.5q22 0 35 -1.5t20.5 -4.5t11 -8t6.5 -12l283 -790h4l278 790q5 14 13.5 18.5t22.5 6t34 1.5q19 0 31.5 -2
t18.5 -7t6 -13.5t-5 -21.5zM556 1366q6 10 13 17t16.5 10.5t23 5t32.5 1.5t31 -3t17 -8.5t3.5 -13t-8.5 -16.5l-174 -234q-7 -10 -12.5 -15.5t-12.5 -8.5t-17 -4t-25 -1t-24.5 2.5t-13 7t-2.5 11.5t7 16z" />
    <glyph glyph-name="thorn" unicode="&#xfe;" horiz-adv-x="1064" 
d="M957 484q0 -116 -25 -208.5t-74.5 -157.5t-122 -100t-166.5 -35q-40 0 -75.5 8.5t-69.5 26.5t-67.5 45t-70.5 65v-467q0 -6 -3 -11t-9.5 -8.5t-18 -5t-29.5 -1.5q-17 0 -28.5 1.5t-18.5 5t-9.5 8.5t-2.5 11v1707q0 6 2.5 11t9.5 8.5t18.5 5t28.5 1.5q18 0 29.5 -1.5
t18 -5t9.5 -8.5t3 -11v-565q40 41 76.5 71t73 49.5t75 29t82.5 9.5q98 0 167.5 -38t113 -103t63.5 -152t20 -185zM832 465q0 76 -12 147t-41 126t-77 88.5t-120 33.5q-35 0 -69.5 -10t-70.5 -33t-74.5 -59.5t-81.5 -90.5v-394q75 -91 144.5 -139.5t144.5 -48.5
q69 0 118 33.5t80 87.5t45 122t14 137z" />
    <glyph glyph-name="ydieresis" unicode="&#xff;" horiz-adv-x="903" 
d="M519 0l-126 -339q-5 -11 -21 -18.5t-51 -7.5q-18 0 -30 2t-18.5 7.5t-7.5 14t4 20.5l128 321q-8 3 -14 10t-8 14l-329 883q-5 14 -5 22.5t5.5 13.5t18 6.5t33.5 1.5q22 0 35 -1.5t20.5 -4.5t11 -8t6.5 -12l283 -790h4l278 790q5 14 13.5 18.5t22.5 6t34 1.5q19 0 31.5 -2
t18.5 -7t6 -13.5t-5 -21.5zM358 1211q0 -46 -16 -62t-59 -16t-58.5 15.5t-15.5 61.5q0 47 16 63t58 16q44 0 59.5 -16t15.5 -62zM692 1211q0 -46 -16 -62t-59 -16t-58.5 15.5t-15.5 61.5q0 47 16 63t58 16q44 0 59.5 -16t15.5 -62zM61 946z" />
    <glyph glyph-name="Amacron" unicode="&#x100;" horiz-adv-x="1154" 
d="M1108 41q6 -15 5.5 -24.5t-7 -14.5t-20 -6.5t-34.5 -1.5t-33.5 1.5t-19.5 4.5t-10.5 8t-6.5 12l-124 345h-568l-119 -343q-2 -7 -6 -12t-11 -8.5t-19.5 -5.5t-31.5 -2q-21 0 -35 2t-20.5 7t-7 14t5.5 24l453 1231q3 8 9 13.5t15.5 8.5t23 4.5t30.5 1.5q18 0 31.5 -1.5
t23 -4.5t15 -8.5t8.5 -13.5zM571 1163h-1l-244 -696h495zM845 1576q6 0 11 -3.5t8.5 -10t5 -16.5t1.5 -22t-1.5 -21.5t-5 -16.5t-8.5 -10.5t-11 -3.5h-521q-7 0 -12 3.5t-8.5 10.5t-5.5 16.5t-2 21.5t2 22t5.5 16.5t8.5 10t12 3.5h521zM148 1294z" />
    <glyph glyph-name="amacron" unicode="&#x101;" horiz-adv-x="964" 
d="M801 20q0 -10 -6.5 -15.5t-17 -8t-28.5 -2.5q-17 0 -29 2.5t-18.5 8t-6.5 15.5v101q-61 -66 -134.5 -102t-152.5 -36q-71 0 -127.5 18.5t-95.5 53t-60 83.5t-21 110q0 75 31 130.5t88 92.5t137 55.5t178 18.5h144v78q0 58 -12 102.5t-39 74.5t-70 45t-105 15
q-60 0 -108 -14.5t-84 -32.5t-59.5 -32.5t-33.5 -14.5q-6 0 -11 2t-8.5 7.5t-5 14t-1.5 20.5q0 21 3 33.5t15.5 25t44.5 29.5t73.5 31.5t89.5 23.5t96 9q93 0 157 -22.5t103.5 -64.5t56.5 -103.5t17 -139.5v-612zM682 447h-165q-72 0 -126 -13t-90 -38t-53.5 -60t-17.5 -80
q0 -78 49.5 -124.5t139.5 -46.5q71 0 132.5 36.5t130.5 112.5v213zM720 1277q6 0 11 -3t8 -9t5 -15.5t2 -22.5q0 -12 -2 -21t-5 -15.5t-8 -10t-11 -3.5h-462q-7 0 -12 3.5t-8.5 10t-5.5 15.5t-2 21q0 13 2 22.5t5.5 15.5t8.5 9t12 3h462zM82 946z" />
    <glyph glyph-name="Abreve" unicode="&#x102;" horiz-adv-x="1154" 
d="M1108 41q6 -15 5.5 -24.5t-7 -14.5t-20 -6.5t-34.5 -1.5t-33.5 1.5t-19.5 4.5t-10.5 8t-6.5 12l-124 345h-568l-119 -343q-2 -7 -6 -12t-11 -8.5t-19.5 -5.5t-31.5 -2q-21 0 -35 2t-20.5 7t-7 14t5.5 24l453 1231q3 8 9 13.5t15.5 8.5t23 4.5t30.5 1.5q18 0 31.5 -1.5
t23 -4.5t15 -8.5t8.5 -13.5zM571 1163h-1l-244 -696h495zM823 1665q0 -62 -16.5 -111t-48 -83.5t-76.5 -52.5t-100 -18q-62 0 -107 20.5t-74 56t-43 84t-14 104.5q0 13 8.5 18.5t36.5 5.5t40 -3t12 -17.5t8.5 -53t26.5 -63.5t44.5 -38.5t64.5 -13.5q55 0 87.5 27.5t43 65.5
t10.5 61t8 29t44 6q28 0 36.5 -5.5t8.5 -18.5zM196 1294z" />
    <glyph glyph-name="abreve" unicode="&#x103;" horiz-adv-x="964" 
d="M801 20q0 -10 -6.5 -15.5t-17 -8t-28.5 -2.5q-17 0 -29 2.5t-18.5 8t-6.5 15.5v101q-61 -66 -134.5 -102t-152.5 -36q-71 0 -127.5 18.5t-95.5 53t-60 83.5t-21 110q0 75 31 130.5t88 92.5t137 55.5t178 18.5h144v78q0 58 -12 102.5t-39 74.5t-70 45t-105 15
q-60 0 -108 -14.5t-84 -32.5t-59.5 -32.5t-33.5 -14.5q-6 0 -11 2t-8.5 7.5t-5 14t-1.5 20.5q0 21 3 33.5t15.5 25t44.5 29.5t73.5 31.5t89.5 23.5t96 9q93 0 157 -22.5t103.5 -64.5t56.5 -103.5t17 -139.5v-612zM682 447h-165q-72 0 -126 -13t-90 -38t-53.5 -60t-17.5 -80
q0 -78 49.5 -124.5t139.5 -46.5q71 0 132.5 36.5t130.5 112.5v213zM634 1368q0 11 9 17.5t37 6.5q15 0 23.5 -1.5t13.5 -4.5t6.5 -7.5t1.5 -10.5q0 -68 -16 -118t-46.5 -83t-75.5 -49.5t-102 -16.5q-62 0 -107 18t-74.5 51.5t-43.5 82.5t-14 112q0 14 9.5 20.5t35.5 6.5
q14 0 23 -1.5t14 -4.5t7 -7.5t2 -10.5q2 -39 11.5 -71t27.5 -54.5t45 -34.5t64 -12q31 0 57 9.5t46 30t32 53t14 79.5zM98 946z" />
    <glyph glyph-name="Aogonek" unicode="&#x104;" horiz-adv-x="1154" 
d="M1140 -308q0 -11 -2 -19t-6 -13t-10.5 -8.5t-23 -7t-33 -5.5t-31.5 -3t-30 -1q-44 0 -80.5 7.5t-62.5 24.5t-40.5 44t-14.5 65q0 15 4 32t14 37.5t27.5 44t45.5 51.5l83 83l-122 341h-568l-119 -343q-3 -7 -6.5 -12t-10.5 -8.5t-19.5 -5.5t-31.5 -2q-21 0 -35 2t-20.5 7
t-7 14t5.5 24l453 1231q3 8 9 13.5t15.5 8.5t23 4.5t30.5 1.5q18 0 31.5 -1.5t23 -4.5t15 -8.5t8.5 -13.5l435 -1181q8 -23 11.5 -38t0.5 -28.5t-13.5 -27.5t-30.5 -34l-89 -89q-25 -25 -34.5 -45t-9.5 -40q0 -28 20.5 -42t73.5 -14h97q12 0 18 -7.5t6 -33.5zM571 1163h-1
l-244 -696h495z" />
    <glyph glyph-name="aogonek" unicode="&#x105;" horiz-adv-x="964" 
d="M873 -308q0 -11 -1 -18t-4.5 -12t-9 -8t-14.5 -6q-24 -8 -51.5 -10.5t-62.5 -2.5q-86 0 -133.5 36.5t-47.5 106.5q0 17 3 34t12 36t24.5 40t41.5 47l65 65v121h-2q-59 -66 -132.5 -102t-152.5 -36q-71 0 -127.5 18.5t-95.5 53t-60 83.5t-21 110q0 75 31 130.5t88 92.5
t137 55.5t178 18.5h144v78q0 58 -12 102.5t-39 74.5t-70 45t-105 15q-60 0 -108 -14.5t-84 -32.5t-59.5 -32.5t-33.5 -14.5q-6 0 -11 2t-8.5 7.5t-5 14t-1.5 20.5q0 21 3 33.5t15.5 25t44.5 29.5t73.5 31.5t89.5 23.5t96 9q93 0 157 -22.5t103.5 -64.5t56.5 -103.5
t17 -139.5v-602q0 -28 -5.5 -50t-22.5 -39l-65 -65q-26 -26 -34 -46.5t-8 -37.5q0 -59 77 -59h106q13 0 18.5 -7.5t5.5 -33.5zM682 447h-165q-72 0 -126 -13t-90 -38t-53.5 -60t-17.5 -80q0 -78 49.5 -124.5t139.5 -46.5q71 0 132.5 36.5t130.5 112.5v213z" />
    <glyph glyph-name="Cacute" unicode="&#x106;" horiz-adv-x="1096" 
d="M1036 176q0 -11 -1 -20t-3 -16t-5.5 -13t-13 -15.5t-41.5 -31t-80.5 -42.5t-111.5 -36t-139 -15q-122 0 -221 42.5t-168.5 124.5t-107 202t-37.5 274q0 158 40 283.5t112.5 213t174 134t224.5 46.5q58 0 112.5 -11t100.5 -28t82.5 -39t50 -35.5t17 -19.5t5.5 -13.5t3 -17
t1 -21.5q0 -14 -1.5 -24.5t-5 -18t-8.5 -11.5t-12 -4q-14 0 -39.5 20.5t-67 45.5t-101.5 45.5t-143 20.5q-91 0 -167 -36.5t-130.5 -107.5t-85 -175t-30.5 -239q0 -129 28 -229t81 -168.5t131 -104.5t177 -36q81 0 141.5 20.5t103.5 45.5t70.5 45.5t42.5 20.5q6 0 10 -2.5
t6.5 -9t4 -17.5t1.5 -27zM741 1656q10 11 19.5 17.5t20.5 10t25 4.5t32 1q21 0 34 -3.5t18.5 -9t4 -13t-8.5 -15.5l-228 -219q-10 -10 -18 -15.5t-17 -8.5t-19.5 -4t-25.5 -1q-17 0 -26.5 2.5t-12.5 7t-1 11.5t10 16zM389 1294z" />
    <glyph glyph-name="cacute" unicode="&#x107;" horiz-adv-x="871" 
d="M799 154q0 -12 -1 -21.5t-3 -16.5t-5.5 -12.5t-16.5 -18.5t-43.5 -33t-68.5 -35t-82 -24.5t-91 -9.5q-94 0 -166.5 31.5t-121.5 93t-74.5 151t-25.5 206.5q0 132 31.5 226t86.5 154t128.5 88.5t157.5 28.5q45 0 86 -8.5t75.5 -22.5t61.5 -32t39.5 -30.5t17 -19t7 -14.5
t3.5 -17.5t1 -22.5q0 -29 -8.5 -40.5t-18.5 -11.5q-14 0 -34.5 18t-52.5 39.5t-77.5 39.5t-108.5 18q-130 0 -200.5 -100t-70.5 -289q0 -95 19 -166.5t54.5 -119t86.5 -71t115 -23.5q60 0 106 19t80 42t56.5 42t33.5 19q6 0 10.5 -3.5t7.5 -11t4.5 -18t1.5 -24.5zM573 1366
q6 10 13 17t16.5 10.5t23 5t32.5 1.5t31 -3t17 -8.5t3.5 -13t-8.5 -16.5l-174 -234q-7 -10 -12.5 -15.5t-12.5 -8.5t-17 -4t-25 -1t-24.5 2.5t-13 7t-2.5 11.5t7 16z" />
    </font>
</defs>
</svg>
